<?xml version="1.0" standalone="no"?>
<!DOCTYPE svg PUBLIC "-//W3C//DTD SVG 1.1//EN" "http://www.w3.org/Graphics/SVG/1.1/DTD/svg11.dtd" >
<svg xmlns="http://www.w3.org/2000/svg">
<metadata>Generated by IcoMoon</metadata>
<defs>
<font id="iconfonts" horiz-adv-x="1024">
<font-face units-per-em="1024" ascent="960" descent="-64" />
<missing-glyph horiz-adv-x="1024" />
<glyph unicode="&#x20;" horiz-adv-x="512" d="" />
<glyph unicode="&#xe900;" glyph-name="px" horiz-adv-x="896" d="M206.6 271.4c-13 28.4-13.8 36.6 14.8 46.2 51.2 16 16-18.4 86.4-98.4h0.6v187.8c2.4 100.4 88 184.4 195.4 184.4 107.8 0 195.4-87 195.4-193.6 0-126.8-121.6-226.4-257-186.6-21 8.4-4.2 63.4 17 57.2 106 0 178.8 20.2 178.8 128.8 0 122-154.2 179.2-233.8 89.2-47-52.8-35.2-84.2-35.2-315.2 101.4-62 236.6-44 320.8 40.2 49.6 49.6 77 116 77 186 0 70.4-27.6 136.4-77.6 186.6-49.6 49.6-115.6 77-186.6 77s-137.6-27.6-187-77c-0.6-0.6-32-33-42.4-47.8l-1-1.2c-6.6-9.4-12.6-18.2-40.2-12.2-13.8 3.4-28.6 11.6-28.6 23.6v373.6c0 10 7.8 21 21 21h482.6c16.6 0 16.6-23.2 16.6-30.2 0-7.8 0-30.2-16.6-30.2h-446.4v-265.8h0.6c208.4 219.6 565.6 72 565.6-217.8 0-356.2-489.6-440.6-620.2-125.6zM333.2 793c-1-8.4 9.2-49 29.2-41.2 249.6 95 405.6-80.8 418.8-80.8 9.6 0 45.6 30.6 28.6 45.6-186.4 178-469 114-476.6 76.4zM786 130.6c-220-219.8-598-121.6-664 208.4 0 24.4-60.8 14.8-57.8-6.6 48-346.8 492-513.8 763.2-242.6 13.8 15.6-25.2 56.8-41.4 40.8zM427.2 346.8c0-8 8.6-14.6 11-17 6-6 12.2-8.8 17-8.8 7.6 0 5.2-0.4 44.6 39 39.2-38.6 38.2-39 44.6-39 10.8 0 37 20.8 21.4 36.4l-34.6 34.6 36.4 36.4c12.6 13.6-20.2 43.6-32.4 31.4l-35.8-35.8c-37.2 37.6-36.8 39-43 39-10 0-36-23.4-24.8-34.6l36.4-36.4c-36.2-35.8-40.8-38.4-40.8-45.2z" />
<glyph unicode="&#xe901;" glyph-name="accessible-icon" horiz-adv-x="896" d="M847.8 448.4l-25.8-314.6c-6.6-81.4-127.8-70.2-121.2 9.8l20 245-82.2-4.6c20.2-41.4 31.6-87.8 31.6-137 0-82.4-32.2-157.4-84.6-213l-78.6 78.6c115.8 127.4 26.2 334.4-148 334.4-51.8 0-99-19.8-134.4-52l-78.6 78.6c44 41.4 100.2 70.2 162.8 80.4l150.6 171.4-85.2 49.6-103.2-92c-60-53.6-141.2 37-81 90.8l136 121.4c19.6 17.6 48.2 20.4 71 7.2 0 0 278.6-161.8 279-162.2 32.4-20.2 41.4-72 12.2-105.2l-116.8-133 212.2 11.8c37 2.2 67.2-28.8 64.2-65.4zM718 756.4c56.2 0 101.8 45.6 101.8 101.8s-45.6 101.8-101.8 101.8c-56.2 0-101.8-45.6-101.8-101.8s45.6-101.8 101.8-101.8zM359.2 47c-161.2 0-254.8 181.2-165.4 312.2l-79.4 79.4c-41.6-52.6-66.4-119.2-66.4-191.4 0-261.4 301.4-402.8 502.8-245l-79.4 79.4c-32-21.8-70.6-34.6-112.2-34.6z" />
<glyph unicode="&#xe902;" glyph-name="accusoft" horiz-adv-x="1280" d="M644.2 456v2l-102.4 131.6s-24-3.2-50-30.2c-18-18.6-484.2-478.2-486.8-481.8-14-20 3.2-13.6 31.4-3.4 1.6 0 229 73.2 229 73.2 1 1.2-0.2 0.2 1.2 1.2-0.8 10.2-1.6 52.4-2 55.4-1.2 10.4 4.4 13.8 14 17.8l185.2 67.6c1.2 1.6 177 163.4 180.4 166.6zM964.4 215.8c26.6-32.2 41.4-26.6 61.6-18.6 6.4 2.4 230.8 95.2 235.6 97.8 16 8.6-3.4 33.4-14.4 46.8-4.2 5-410.2 491.2-414.4 496.6-19.4 24.4-28.6 25.8-76.8 25.6-20.4 0-213.6-1-233-1.2-38.4-0.2-65.8 0.6-38.4-33.8 15.4-19 468.4-599.4 479.8-613.2zM1269.8 212.6c-4.6 0.6-49.2 9.4-76 14.4 0 0-230-100.8-235-103.2-32-14.6-53.8 6.4-73.4 29.2l-114.2 148c-10.8 1.8-120.8 19.2-130.6 18.6-6.2-0.4-19.2-1.6-28.8-5.8-9.8-4.2-290.4-105.6-300.4-109.4-10.2-4-22.8-7.2-22.2-15.2 0.4-5 4-5.2 9.2-7 5.4-1.6 601.8-135.2 616-138.2 31.2-6.6 77-21 107.2-3.4 4.2 2.4 247.6 152.8 251.6 155.6 10.8 8 8.6 13.6-3.4 16.4z" />
<glyph unicode="&#xe903;" glyph-name="acquisitions-incorporated" horiz-adv-x="768" d="M714.9 23.6c-2.4 15.4-2.6 15.2-19.2 15.2-199.6-0.4-223.6 4.8-225.4 5.2-24.6 3.4-41.2 21-42 46.2-0.2 3.2-0.4 143.2-2 258.2-0.2 9.4 3.2 12.8 11.8 15 25 6 49.8 12.2 74.6 19.4 8.6 2.6 13.6 0.4 16.8-7 9-20.6 17.6-41.2 26.4-61.8 3.2-7.4 0.2-8.8-6.8-8.8-20 0.4-40 0.2-60.8 0.2v-54h232c-2.8 19-5.4 36.2-8 55-14 0-27.6-0.8-40.8 0.2-45.2 3.2-36.6 8.8-168 317.2-17.6 40.2-55.8 124.2-73 178.4-8.8 28 11 50.8 37.8 53.2 37.2 3.4 75 3.2 112.4 4 41.2 0.8 82.4 0.8 123.6 1 6.2 0 8 2.8 8.6 8.6 2.4 19.6 5.4 39 8 58.4 1.6 10.6 3.2 21.4 4.8 32.2l-678.2 0.4c-7.2 0-10.6-2.2-9.2-10.6 4.4-26.4-1.6-1.6 12.8-90.6 126.8 0 143.6-1.8 203.6-1 24.6 0.4 74-7 75.4-44.2 0.8-22.8-2.2-22.6-65.2-174.8-107.6-259.6-101.4-240.6-134.6-322-3.4-8.2-7.2-10.4-15.2-10.4-17 0.4-34 0.6-50.8-0.2-3.8-0.2-10.4-3.6-11-6.4-3-16.2-4.4-32.6-6.4-49.8h228.6v55.2c-13.8 0-67-0.8-70.6 5.8 10.6 24.6 20.8 48.8 31.4 73.4 32.6-8 63.8-15.6 95.2-23.4 6.8-1.8 9.2-6 9.2-13.6-0.2-85.8 0.2-171.8 0.4-257.6 0-20.4-11-38.2-29.8-46.2-13-5.4-6.6-6.8-242.8-4.8-10.6 0-14.2-4-15.2-13.6-3-25.8-5.8-51.8-10-77.6-1.6-10 2.6-11.4 10.6-11.4 366.4-1.2-61.4 0 674.2 0-5 30-8.8 58.8-13.2 87.4zM365.1 435c-26.6 8.4-53.2 16.4-79.8 25-4.545 1.884-8.358 3.827-12 6.024l0.4-0.224c34.4 88.6 68.4 176.2 102.6 264.2 15-4.8 15.8 1.6 18.8 0 18.6-45 36.2-120.2 54-165.6 13.2-33.4 26-67 39.4-101.8-2.16-1.371-4.717-2.772-7.363-4.015l-0.437-0.185c-26.2-7.8-52.8-15-78.8-23.4-5.48-1.996-11.805-3.15-18.4-3.15s-12.92 1.154-18.785 3.271l0.385-0.122z" />
<glyph unicode="&#xe904;" glyph-name="adn" horiz-adv-x="992" d="M496 625l129.8-197.6h-259.6l129.8 197.6zM992 448c0-273.8-222.2-496-496-496s-496 222.2-496 496 222.2 496 496 496 496-222.2 496-496zM792.4 282.6l-296.4 446.4-296.4-446.4h60.8l67.2 103.4h337.2l67.2-103.4h60.4z" />
<glyph unicode="&#xe905;" glyph-name="adobe" d="M631 832h341.8v-768l-341.8 768zM393 832h-341.8v-768l341.8 768zM512 547.8l215-483.8h-146l-61.4 153.6h-157.4l149.8 330.2z" />
<glyph unicode="&#xe906;" glyph-name="adversal" d="M964.2 896h-906.8c-45.8 0-57.4-11.8-57.4-57.8v-780.4c0-46.6 11.6-57.8 57.4-57.8h906.8c48.8 0 59.8 10.4 59.8 59.4v776.2c0 49.2-10.8 60.4-59.8 60.4zM356.8 519.4c-55 40.4-144.2 17.4-168.4-46.8-8.6-22.2-18.6-19-35-16.6-19.4 3-34.4 6.4-45 11-57.6 22.8 17.2 110.6 49.8 128.6 82.2 42.8 166.8 44.4 250.6 9.6 81.8-33.6 69-118.4 69-257 5.4-51.6-8.6-116.6 18.6-177.6 3.8-8.8 0.8-15.8-5.4-21.4-16.8-13.4-78.6-4.4-93.2 14.8-3.8 4.4-3.6 7.2-7.8 12.4-7.2 7.8-14.6 4.4-23.8-2-114.8-72.8-280.6-42.8-294 86.6-6.2 58.6 24.8 114.2 79.2 142 76.4 39 224.4 23.6 228 61.8 2.2 20.4-3.8 40.2-22.6 54.6zM930.2 75.4c0-30.2-22.2-19.8-35.6-19.8h-789.8c-14.8 0-36.4-9.6-35.6 21.4 0.8 27.8 21 18.2 34.2 18.2 264.6 0.8 529 0.8 793.6 0 13.6 0 33.2 8.8 33.2-19.8zM937.8 756.4v-582c0-11.4-1.4-27.8-16.2-27.8-24.8 0.8-55-14.2-72.2 11.2-11.6 17.4-15.6 8-24.8 2.4-106.8-59.4-256.2-14.2-288.8 170.4-12.2 66.8-1.4 134.2 31.4 200 23.6 47.8 113.8 152.2 272.2 61v142c0 52.4-0.2 52.4 52 52.4 6.2 0 13.2-0.8 19.4 0 20.2 1.6 27.2-8.8 27.2-28.6-0.2-0.4-0.2-0.6-0.2-1zM834.8 291.8c-39-95.2-145.8-86.6-180-10.4-30.2 66.6-31 136.4 0.8 203 32.6 68.2 119.4 71.4 163 9.6 41.2-57.6 29.8-169.2 16.2-202.2zM245.2 221.2c-15 2.6-66 6.6-67.4 55.6-0.8 27.8 15.6 46 39.6 51.6 48.8 11.8 98.6 19.8 147.4 29.4 17.8 4 14.8-8.8 15.6-19 2.8-66-52.2-118.4-135.2-117.6z" />
<glyph unicode="&#xe907;" glyph-name="affiliatetheme" d="M319.4 485.2c-102.6-141.8-233.2-221.6-291.4-178.4-58.4 43.4-22.4 193.2 80.4 335 102.6 141.8 233.2 221.6 291.4 178.4s22.2-193.2-80.4-335zM1021.8 599.8c-147.6-246.8-383.8-375.4-529-287.2-50 30.4-82.6 82.4-98 147.6-67.2-129.6-185.6-227.6-328.2-266.4 99.6-118.6 248.2-193.8 414-193.8 300 0 543.2 246.2 543.2 549.8 0.2 17-0.6 33.6-2 50z" />
<glyph unicode="&#xe908;" glyph-name="airbnb" horiz-adv-x="896" d="M448 213.76c-50.48 63.34-80.16 118.86-90 166.36-45.1 176 225.22 176 180.12 0-10.9-48.5-40.58-104-90-166.36zM724.3 67.3c-84.12-36.62-167.34 21.76-238.6 100.94 207.8 260.14 92.22 400-37.7 400-109.84 0-170.32-93.020-146.56-201 13.86-58.38 50.46-124.78 108.86-199-65.060-72.1-121.1-105.38-170.3-109.84-100-14.86-178.22 82.12-142.6 182.18 30.2 78.32 223.44 462.36 231.74 483.12 31.5 60.14 51.12 114.8 118.76 114.8 64.68 0 86.8-51.88 120.74-119.74 72-141.24 178.7-354.96 229.68-478.18 26.34-66.14-2.74-142.58-74.020-173.28zM818.3 339.54c-257.76 548.6-272.040 556.46-370.3 556.46-91.040 0-129.74-63.34-169.32-145.58-212.32-424.62-232.9-484.8-234.68-490.040-50.44-138.66 53.48-260.38 179.26-260.38 43.42 0 121.22 12.12 224.74 124.8 117.36-127.56 202.52-124.8 224.74-124.8 125.78-0.1 229.7 121.72 179.22 260.38 0.040 7.78-33.64 77.8-33.64 79.16z" />
<glyph unicode="&#xe909;" glyph-name="algolia" horiz-adv-x="896" d="M458.6 594.8c-98.6 0-178.4-79.8-178.4-178.4s79.8-178.4 178.4-178.4 178.4 79.8 178.4 178.4c0 98.6-80 178.4-178.4 178.4zM584 481.6l-117.8-61.2c-3.6-1.8-7.6 0.8-7.6 4.6v133c0 3 2.6 5.4 5.4 5.2 52.4-2 97.8-31.4 122.2-74.2 1.4-2.6 0.4-6-2.2-7.4zM778.2 896h-660.4c-65 0-117.8-52.8-117.8-117.8v-660.2c0-65.2 52.8-118 117.8-118h660.2c65.2 0 117.8 52.8 117.8 117.8v660.4c0.2 65-52.6 117.8-117.6 117.8zM373 726.6c0 21.6 17.4 39 39 39h90.6c21.6 0 39-17.4 39-39v-30.8c0-3.6-3.4-6-6.6-5-24.6 6.8-50.2 10.2-76.2 10.2-27 0-53.4-3.6-78.8-11-3.4-1-6.8 1.6-6.8 5v31.6zM204.2 652.6l18.4 18.4c15.2 15.2 39.8 15.2 55 0l15.4-15.4c2.2-2.2 2-6-0.6-8-12.4-9-24.2-18.8-35.2-29.8-10.8-10.8-20.8-22.6-29.6-34.8-2-2.6-5.8-3-8-0.6l-15.4 15.4c-15.2 15-15.2 39.6 0 54.8zM458.6 163c-140 0-253.2 113.4-253.2 253.2s113.4 253.2 253.2 253.2c140 0 253.2-113.2 253.2-253.2 0-139.6-113.4-253.2-253.2-253.2z" />
<glyph unicode="&#xe90a;" glyph-name="alipay" horiz-adv-x="896" d="M755.48 896h-614.96c-77.7 0-140.52-62.82-140.52-140.52v-614.96c0-77.7 62.82-140.52 140.52-140.52h614.96c77.040 0 139.52 62.16 140.52 139.2-91.92 51.24-221.18 120.68-343.2 176.88-64.14-87.94-168.28-162-297.24-162-141.18 0-187.46 90.6-194.080 152.74-7.94 78.020 29.76 163 199.040 163 70.76 0 158.7-20.5 254.26-49.92 33.060 60.18 52.9 120.68 52.9 120.68h-356.4v33.4h184.16v62.48h-218.88v38.020h218.88v100.84h101.84v-100.84h218.88v-38.020h-218.9v-62.48h177.54s-30.42-93.24-76.7-181.84c97.86-33.4 200.020-72.080 297.24-105.48v468.82c0.32 77.38-62.48 140.52-139.86 140.52zM94.56 314.1c1.98-40.34 20.5-107.46 139.86-107.46 104.14 0 185.16 79.36 235.74 145.8-89.26 37.36-168.96 62.82-218.88 62.82-134.9 0-158.7-66.12-156.72-101.16z" />
<glyph unicode="&#xe90b;" glyph-name="amazon" horiz-adv-x="896" d="M514.4 634.6c-97.4-3.6-339-31-339-235 0-219 276.6-228 367-86.4 13-20.4 70.8-75 90.6-93.6l113.6 112s-64.6 50.6-64.6 105.6v294.2c0 50.6-49 164.6-224.6 164.6-176 0-269.4-110-269.4-208.6l147-13.6c32.6 99 108.4 99 108.4 99 81.4 0.2 71-59.6 71-138.2zM514.4 461c0-160-168.4-136-168.4-34.4 0 94.4 101 113.4 168.4 115.6v-81.2zM786.4 134c-15.4-20-140-134-349-134s-369 143-418 202c-13.6 15.4 2 22.6 11 16.6 146.6-89 375.6-235.6 745-60.6 15 7.4 26.6-4 11-24zM866 129.6c-13-31.6-32-53.6-42.4-62-11-9-19-5.4-13 7.6s38.6 93 25.4 110c-13 16.6-74 8.6-96 6.4-21.6-2-26-4-28 0.6-4.6 11.4 43.4 31 75 35 31.4 3.6 82 1.6 92-11.4 7.4-10.2 0-54.2-13-86.2z" />
<glyph unicode="&#xe90c;" glyph-name="amazon-pay" horiz-adv-x="1280" d="M28 309.4c4.6 8.4 10.4 9.8 19.4 5 20.8-11.2 41.2-22.8 62.4-33.4 72.939-37.337 157.828-69.096 246.627-90.903l8.173-1.697c33.533-8.636 76.394-16.896 119.981-22.879l6.419-0.721c48.286-6.846 104.059-10.755 160.745-10.755 10.287 0 20.545 0.129 30.77 0.385l-1.515-0.030c34.8 0.8 69.6 3.6 104.2 7.6 121.119 14.424 231.479 44.555 334.473 88.593l-7.873-2.993c5.8 2.4 11.8 4 18.2 2.4 13.4-3.6 18-18 8.2-27.8-5.72-5.272-11.992-10.146-18.655-14.469l-0.545-0.331c-61.4-42.2-128.4-72.8-199.2-95.8-42.201-14.232-92.855-26.5-144.908-34.528l-5.292-0.672c-31.109-5.043-67.839-8.494-105.164-9.572l-1.236-0.028c-1.866-0.115-3.582-0.328-5.263-0.641l0.263 0.041h-42.2c-1.418 0.272-3.134 0.485-4.878 0.594l-0.122 0.006c-7.2 0.4-14.4 0.6-21.4 0.8-37.15 1.72-71.84 5.509-105.843 11.312l5.043-0.712c-61.092 10.099-115.179 24.629-167.008 43.812l6.208-2.012c-112.52 41.238-209.3 100.308-292.007 174.714l0.807-0.714c-3.6 3.2-6 7.6-8.8 11.4zM344 829.8l-8.6-1.2c-28.899-3.658-54.748-14.436-76.437-30.509l0.437 0.309c-4.8-3.4-9.2-7-14.2-10.8-0.402 0.815-0.685 1.762-0.796 2.761l-0.004 0.039c-0.8 5.4-1.6 11-2.6 16.4-1.4 9.2-6 13.2-15.2 13.2h-23c-13.8 0-16.4-2.6-16.4-16.4v-418.6c0-2 0-4 0.2-6 0.4-6 4-9.8 9.8-10 14-0.2 28.2-0.2 42.2 0 5.8 0 9.4 4 10 10 0.2 2 0.2 4 0.2 6v144.8c2.2-1.8 3.4-2.8 4.4-3.8 35.8-29.8 77-39.6 122-30.8 40.8 8 69.2 33 87.6 69.8 14 27.8 19.8 57.4 20.6 88.2 1 34.2-2.4 67.8-16.2 99.6-17 39.2-45.2 65-87.8 73.8-6.4 1.4-13 2-19.6 3-5.6 0.2-11 0.2-16.6 0.2zM249.2 746c-0.017 0.181-0.026 0.391-0.026 0.604 0 2.541 1.361 4.763 3.394 5.979l0.032 0.018c27.4 19 57.6 29 91.2 26.4 29.8-2.2 54.2-16.8 67-51.8 7.8-21.4 9.8-43.6 9.8-66 0-20.8-1.6-41.2-8-61.2-13.6-42.6-44.8-58.8-85.2-57-28 1.2-52.4 12-74.8 27.8-2.064 1.276-3.418 3.526-3.418 6.093 0 0.178 0.007 0.355 0.019 0.53l-0.001-0.023c0.2 28.2 0 56.2 0 84.4s0.2 56 0 84.2zM660.6 829.8c-2-0.2-4-0.6-5.8-0.8-20.96-0.907-40.768-3.845-59.842-8.634l2.042 0.434c-12.2-3.2-24-7.6-35.8-11.6-7.2-2.4-10.8-7.6-10.6-15.4 0.2-6.6-0.2-13.2 0-19.8 0.2-9.6 4.2-12.2 13.6-9.8 15.6 4 31.2 8.4 47 11.4 24.6 4.6 49.4 6.6 74.4 2.8 13-2 25.2-5.8 33.6-16.8 7.4-9.6 10.2-21 10.6-32.8 0.6-16.6 0.4-33.2 0.6-49.8-0.054-1.022-0.197-1.981-0.422-2.907l0.022 0.107c-1 0.2-1.8 0-2.6 0.2-18.636 4.816-40.51 8.305-62.941 9.746l-1.059 0.054c-22.6 1.2-45-0.2-66.6-7.8-25.8-9-46.6-24.6-58.8-49.8-9.4-19.6-10.8-40.4-7.8-61.4 4-28 18-49.6 42.8-63.4 23.8-13.2 49.6-14.8 75.8-10.8 30.2 4.6 57 17.4 80.6 36.8 0.928 0.841 1.98 1.573 3.118 2.161l0.082 0.039c1.2-7.6 2.2-14.8 3.6-22 1.2-6.2 5-10.2 10.8-10.4 10.8-0.2 21.8-0.2 32.6 0 5.215 0.042 9.445 4.202 9.6 9.386v0.014c0.133 1.399 0.208 3.024 0.208 4.668 0 0.328-0.003 0.655-0.009 0.981l0.001-0.049v212c0.006 0.535 0.010 1.168 0.010 1.801 0 8.47-0.658 16.786-1.926 24.901l0.116-0.901c-3.8 25.8-14.8 47-38 60.8-13.4 8-28.2 12-43.6 14.2-7.2 1-14.4 1.6-21.6 2.6-7.8-0.2-15.8-0.2-23.8-0.2zM730.6 574.4c0.009-0.128 0.014-0.277 0.014-0.427 0-2.322-1.188-4.366-2.989-5.558l-0.025-0.015c-22.4-16.2-47-27-74.8-29.8-11.4-1.2-22.8-0.8-33.6 3.6-12.015 4.481-21.149 14.207-24.728 26.316l-0.072 0.284c-1.919 5.896-3.026 12.681-3.026 19.724 0 6.805 1.033 13.368 2.951 19.542l-0.125-0.466c5 16.6 16.8 26 32.8 31.2 10.597 3.314 22.782 5.223 35.413 5.223 4.999 0 9.929-0.299 14.771-0.88l-0.584 0.057c16.8-1.4 33.2-4.6 50-6.8 3.2-0.4 4.2-2 4.2-5.2-0.2-9.6 0-19 0-28.6s-0.4-18.8-0.2-28.2zM1250.4 315.6c-2 10-9.6 13.8-18.2 16.6-12.347 4.035-26.664 6.816-41.479 7.773l-0.521 0.027c-7.508 0.68-16.24 1.068-25.063 1.068-18.857 0-37.301-1.771-55.173-5.157l1.836 0.289c-28.6-5.4-55.8-14.6-80-31.2-2.916-1.893-5.371-4.221-7.346-6.922l-0.054-0.078c-0.881-1.479-1.401-3.261-1.401-5.165 0-1.010 0.147-1.986 0.419-2.907l-0.018 0.072c0.8-3 4.2-3.8 7.2-3.6 0.218-0.005 0.475-0.008 0.732-0.008 1.292 0 2.567 0.076 3.82 0.223l-0.152-0.015c15.6 1.6 31 3.4 46.6 5 22.8 2.2 45.8 3.6 68.6 1.8 10.628-0.902 20.426-2.815 29.815-5.665l-1.015 0.265c10.2-2.8 14.8-10.4 15.2-20.8 0.8-16-2.8-31.4-7-46.6-8.2-30.8-20-60.6-31.6-90.2-0.762-1.687-1.448-3.687-1.951-5.759l-0.049-0.241c-1-5.8 2.4-9.6 8.2-8.2 3.738 0.858 6.983 2.607 9.616 5.015l-0.016-0.015c8.986 8.369 17.289 17.115 25.030 26.347l0.37 0.453c25.6 32.8 40.6 70.6 49.4 111.2 1.6 7.2 2.8 14.6 4.2 21.8v34.6zM986.2 562q-38.7 107.1-77.4 214.4c-4 11.4-8.4 22.6-12.6 33.8-2.2 5.8-6.4 9.6-12.8 9.6-15.2 0.2-30.4 0.4-45.8 0.2-5 0-7.4-4-6.4-9 1.116-4.777 2.421-8.85 4.006-12.779l-0.206 0.579q58.8-145.5 118.2-291c3.4-8.2 4.2-15.2 0.4-23.6-6.6-14.6-11.8-30-18.6-44.6-6-13-16-22.8-30.4-26.6-6.391-1.738-13.73-2.737-21.302-2.737-3.347 0-6.648 0.195-9.893 0.575l0.394-0.038c-5 0.4-10 1.6-15 2-6.8 0.4-10.2-2.6-10.4-9.6q-0.3-10 0-19.8c0.2-11 4-16 14.8-17.8 9.9-2.075 21.516-3.508 33.378-3.986l0.422-0.014c34.2-0.8 61.4 13 79 42.8 6.371 10.36 12.54 22.46 17.759 35.054l0.641 1.746q71.1 179.4 141.2 359.2c1.342 3.15 2.452 6.84 3.151 10.674l0.049 0.326c0.8 5.6-1.8 8.8-7.4 8.8-13.2 0.2-26.6 0-39.8 0-0.315 0.023-0.682 0.037-1.053 0.037-6.669 0-12.327-4.329-14.317-10.33l-0.031-0.107c-1-2.8-2.2-5.4-3.2-8.2l-69.6-200c-5-14.4-10.2-29-15.4-44.4-0.8 2.2-1.2 3.4-1.8 4.8z" />
<glyph unicode="&#xe90d;" glyph-name="amilia" horiz-adv-x="896" d="M480.2 896c-123.8 0-263-33.8-368.4-110.8-10.2-6.2-18.2-18.4-14.4-38.8 2.2-10.2 10.2-54.8 20.4-79.2 8.2-20.4 28.4-20.4 40.6-12.2 65 44.6 193 95.4 304.6 95.4 115.8 0 117.8-56.8 117.8-146.2v-77c-174.8-22.6-424.4-69.2-487.4-95.6-71-32.6-60.8-187-60.8-223.6s30.4-208 249.8-208c95.6 0 227.4 41.4 306.6 84.2v-50.8c0-6 4.2-16.4 12.2-18.2 6.2-2 101.4-4 119.8-4s125-0.6 133 1.4c8.2 2 10.2 12.2 10.2 18.2v593.2c-0.2 160.6-115.8 272-384 272zM580.6 200c-42.8-26.4-97.4-48.8-158.2-48.8-105.6 0-117.8 67-118 89.4 0 24.4-6 85.4 36.6 105.8 48.6 26.4 150.2 58.8 239.6 67z" />
<glyph unicode="&#xe90e;" glyph-name="android" horiz-adv-x="1152" d="M841.1 356.14c-26.51 0-48 21.49-48 48s21.49 48 48 48c26.51 0 48-21.49 48-48v0c0-26.51-21.49-48-48-48v0zM310.9 356.14c-26.51 0-48 21.49-48 48s21.49 48 48 48c26.51 0 48-21.49 48-48v0c0-26.51-21.49-48-48-48v0zM858.3 645.1l95.88 166c2.125 3.128 3.392 6.988 3.392 11.144 0 11.046-8.954 20-20 20-7.82 0-14.592-4.488-17.88-11.029l-0.052-0.115-97.080-168.14c-72.475 33.327-157.248 52.76-246.56 52.76s-174.084-19.433-250.321-54.301l3.761 1.541-97.080 168.14c-3.341 6.656-10.112 11.144-17.932 11.144-11.046 0-20-8.954-20-20 0-4.156 1.268-8.016 3.437-11.214l-0.045 0.070 95.88-166c-164.64-89.54-277.22-256.2-293.7-453.1h1152c-16.48 196.9-129.080 363.56-293.7 453.1z" />
<glyph unicode="&#xe90f;" glyph-name="angellist" horiz-adv-x="896" d="M694.2 529.2c23.4 65.2 90.8 253.8 90.8 314.2 0 53.2-31.4 97.8-87.4 97.8-89.2 0-169.2-263.4-194.2-326.2-19.4 57-110.2 345-190.2 345-62.2 0-91.4-45.8-91.4-103.4 0-70.6 68.4-253.6 93.2-324-12.6 4.6-26.2 8.6-40 8.6-46.8 0-96.6-58.2-96.6-105.2 0-17.8 9.8-42.8 16-59.4-73.8-20-102.2-69.2-102.2-143.4-0.2-144.4 136.6-297.2 329-297.2 236 0 382.8 177.2 382.8 405.8 0 86.2-13.8 164-109.8 187.4zM623.4 744c8 24.6 42.2 128.6 74.2 128.6 17.2 0 21.8-17.8 21.8-32 0-38.2-77.2-249.2-94.2-296l-68 12 66.2 187.4zM284.6 863.4c0 23.8 29 91.4 92.6-94.2l69.2-200.6c-31.2 2.6-55.4 6-70.8-2.8-21.8 57.6-91 239.4-91 297.6zM280 472c58.6 0 134.2-189.2 134.2-214.8 0-10.2-9.8-22.8-21.2-22.8-41.8 0-153.8 153.8-153.8 195.4 0.2 15.4 25.4 42.2 40.8 42.2zM648.6 99.4c-58.2-64-132.6-97.2-219.4-97.2-118.8 0-212.6 65.2-257.8 176.6-34.2 86.8 7.6 136.6 41.2 136.6 22.8 0 108.6-120.6 108.6-146.2 0-9.8-15.4-16.6-23.4-16.6-32.2 0-44.8 31-102.2 102.8-59.4-59.4 41-173.8 116.6-173.8 52.2 0 86.2 48.4 76 84 7.4 0 16.6-0.6 23.4 1.2 2.2-54.2 18.2-118.8 83.4-123.4 0 1.8 4 14.2 4 14.8 0 34.8-21.2 65.2-21.2 100.6 0 56.6 43.4 111.4 87.4 143.4 16 12 35.4 19.4 54.2 26.2 19.4 7.4 40 16 54.8 30.8-2.2 22.4-11.4 42.2-33.8 42.2-55.4 0-241.2-8-241.2 79.4 0 13.4 0.2 26.2 34.8 26.2 64.6 0 228.6-16 276.6-58.2 36.2-32.2 48.6-226.4-62-349.4zM451.4 351.4c19.4-6.2 39.4-8 59.4-12-14.8-10.8-28-24-40.6-38.2-5.6 17-12.4 33.6-18.8 50.2z" />
<glyph unicode="&#xe910;" glyph-name="angrycreative" horiz-adv-x="1280" d="M1280 483.6l-6.4-56.4-69-4.6-4-36.2 69 4.6-6.4-56.4-68.8-4.4-4.6-40.2 68.8 4.4-6-52.2-129.4-8.2 25.4 226.4-94.6-230.8-63.8-4-47.6 235.6 60.6 4 27.2-158.8 63.4 164.8 186.2 12.4zM853.6 217l56.6 3.6 25.8 240.2-56.8-3.8-25.6-240zM324 183.8l-38.8 72-7-74.8-56.4-3.4 5.4 58.2c-22-36-64-68.6-113.8-71.6-65.6-4-119.4 41.8-112.8 116.4 5.2 58.6 53.4 125.6 135 130.8 75.4 4.8 95.2-46.4 102.6-57.6l5.6 61.6 77.8 5c40.2 2.6 77.4-7.4 85-47.4l5.2 53.2 129.6 8.4-5.4-55.8-72.8-4.8-3.4-35.8 72.8 4.6-5.4-55.8-72.8-4.6-3.8-39.8 72.6 4.6-4.2-41.6 110 234.4 47.6 3.2 64.2-221.2 17.8 171.2-44.6-2.8 5.8 55.8 150 9.8-6-56-48.6-3.2-19.4-183.8-116-7.4-8.6 31.2-78.8-5-16-32.6-252.4-15.4zM235.4 324.2l-52.8-3.4c-13.4 24.8-28.8 33.2-52.6 31.6-38-2.4-66.6-35-69.2-66.6-2.8-32 14.6-65 57.4-62.4 25.6 1.6 42.6 17.2 57.8 37.8l54 3.4 5.4 59.6zM347.6 339.6c2.4 25.8-15.2 27.2-52.2 24.8l-5.4-57c28.4 1.8 55 4.2 57.6 32.2zM389.8 198l11.6 120c-10-27-29.4-42.2-55.8-53.2l44.2-66.8zM660.6 288l-15.8 75.6-31.6-78.6 47.4 3zM320.4 437.2l-8.6 35-79.2-5.2-16.2-36.4-63.8-4.2 114 243.8 47.8 3.2 61.4-204 19.8 209.4 54 3.6 75.6-127.2 13 133.2 57 3.8-8-82.4c14.8 27 45.8 89.4 127.2 95 81 5.6 104.8-58.6 106.8-60.6l6.6 64 78.6 5.4c25.4 1.8 55.6-0.6 72.6-19.4l-8.8 23.8 64.4 4.4 25.8-86.4 46 91.4 62 4.4-87.2-156.8-9.6-88.6-56.8-3.8 9.6 88.6-31.6 86c2-44.6-18.4-80.2-64-99.2l50.4-77.6-72.8-4.8-38.4 73.6-8-76.6-56.8-3.8 6.6 63c-13.4-18.6-39.4-70.8-119.2-76-52.4-3.4-91.2 20.6-110.8 78.4l-8-80.6-50-3.2-75.2 126.6-12.6-132.4-113.6-7.4zM873.6 601.4c20.4 1.4 35 4.2 43.2 8.6 9 4.8 14 12.8 15.2 24.2 1.2 10.6-1.2 17.6-6.8 20.8-7.2 4.2-21.2 5.6-45.8 4l-5.8-57.6zM655.4 532c11.2-11.8 25.4-17 42.6-15.8 9.4 0.6 18.2 3.6 26.6 8.2 11 6 21.2 16 30.2 28.6l-68.4-4.6 4.8 47.8 126.2 8.6 2.4 24-62.4-4.2c-8.2 7.4-15.6 13.2-22.2 16.2-8 3.4-16.2 5.6-24.4 5-16-1-30.6-7.2-44-18.4-15.4-12.8-24-29-25.8-48.8-2.2-19.2 2.8-34.6 14.4-46.6zM252.8 515.6l47.6 3.2-16.6 75.2-31-78.4z" />
<glyph unicode="&#xe911;" glyph-name="angular" horiz-adv-x="896" d="M371.4 423.8h152.4l-76.2 183.2-76.2-183.2zM447.6 896l-415.6-148.8 63.6-551.4 352-195.8 352 195.8 63.6 551.4zM708 212.4h-97.2l-52.4 130.8h-221.2l-52.4-130.8h-97.4l260.2 584.6z" />
<glyph unicode="&#xe912;" glyph-name="apper" horiz-adv-x="1280" d="M84.2 481.8c44.4 0 58-5.6 67-29.2h1.6v45.8c0 22.6-9.6 30.8-35.8 30.8-22.6 0-28.8-5-30.2-25.6h-77.2c0.6 27.8 3 38.2 11.6 48.8 14.6 17.6 37.8 23.6 92.2 23.6 66 0 94.2-10 107.8-37.8 4-8.6 8-31.2 8-47.4v-152.6h-76.6l2.6 38.2h-2c-10.6-31.2-27.2-40.8-71-40.8-60.6 0-82.2 20.2-82.2 74.6 0 50.4 24.6 71.6 84.2 71.6zM118.4 385.6c26.2 0 33.8 6 33.8 26.8 0 18.2-8.6 23.2-39.2 23.2-26.2 0-35.8-6-35.8-24.2-0.2-20.8 7.4-25.8 41.2-25.8zM274 575.4h76.6l-3-41.2h1.6c18.2 34.2 31.8 41.8 75 41.8 28.8 0 49.4-6 63-18.2 19.6-17.2 25.6-40.8 25.6-96.2 0-60-6-86.2-24.2-105.8-13.6-14.6-32.8-20.2-66.4-20.2-40.8 0-58.4 11-67.6 42.4h-1.6v-140.6h-79v338zM435.8 454c0 55-6.6 65-41.4 65-33.8 0-41.4-10-41.4-57.4 0-56 7-67 42.4-67 32.8 0 40.4 11.2 40.4 59.4zM551.6 575.4h76.6l-3-41.2h1.6c18.2 34.2 31.8 41.8 75 41.8 28.8 0 49.4-6 63-18.2 19.6-17.2 25.6-40.8 25.6-96.2 0-60-6-86.2-24.2-105.8-13.6-14.6-32.8-20.2-66.6-20.2-40.8 0-58.4 11-67.6 42.4h-1.6v-140.6h-79v338zM713.4 454c0 55-6.6 65-41.4 65-33.8 0-41.4-10-41.4-57.4 0-56 7-67 42.4-67 32.8 0 40.4 11.2 40.4 59.4zM821 461.6c0 50.8 6.6 75.6 24.6 91.6 17.6 16.2 44.4 22.6 90.2 22.6 85.6 0 111.4-25.6 111.4-111.4v-22.2h-150.6c-0.6-4-0.6-8-0.6-9.6 0-33.8 9-43.8 40.2-43.8 27.8 0 35.8 6 35.8 27.8h75v-4.6c0-19.6-5-37.8-13.6-49.4-14.6-19.6-39.2-27.2-88.6-27.2-55 0-83.2 6.6-101.2 24.6-17 17-22.6 42.6-22.6 101.6zM973.8 484.8c-0.6 3.6-0.6 6.6-0.6 7.6 0 24.6-6.6 29.2-39.2 29.2-28.8 0-34.2-6-36.2-30.2l-0.6-6.6h76.6zM1085 575.4h76.6l-3.6-39.8h1.4c13.6 29.8 28.8 40.4 59.4 40.4 21.6 0 38.2-6.6 46.8-18.6 10.6-14.6 13.6-28.8 13.6-68 0-3 0-10 0.4-18.6h-70c0.6 3.6 0.6 6.6 0.6 8 0 30.8-4 38.8-20.6 38.8-12.6 0-21.6-6.6-26.2-18.6-2-6-2-8.6-2-24.6v-136h-76.6v237z" />
<glyph unicode="&#xe913;" glyph-name="apple" horiz-adv-x="768" d="M637.4 422.6c-0.4 73.4 32.8 128.8 100 169.6-37.6 53.8-94.4 83.4-169.4 89.2-71 5.6-148.6-41.4-177-41.4-30 0-98.8 39.4-152.8 39.4-111.6-1.8-230.2-89-230.2-266.4q0-78.6 28.8-162.4c25.6-73.4 118-253.4 214.4-250.4 50.4 1.2 86 35.8 151.6 35.8 63.6 0 96.6-35.8 152.8-35.8 97.2 1.4 180.8 165 205.2 238.6-130.4 61.4-123.4 180-123.4 183.8zM524.2 751c54.6 64.8 49.6 123.8 48 145-48.2-2.8-104-32.8-135.8-69.8-35-39.6-55.6-88.6-51.2-143.8 52.2-4 99.8 22.8 139 68.6z" />
<glyph unicode="&#xe914;" glyph-name="apple-pay" horiz-adv-x="1280" d="M233.8 643c-15-17.8-39-31.8-63-29.8-3 24 8.8 49.6 22.6 65.2 15 18.2 41.2 31.2 62.6 32.2 2.4-24.8-7.4-49.4-22.2-67.6zM255.6 608.6c-34.8 2-64.6-19.8-81-19.8-16.8 0-42 18.8-69.6 18.2-35.8-0.6-69-20.8-87.2-53-37.6-64.6-9.8-160 26.6-212.6 17.8-26 39-54.6 67-53.6 26.6 1 37 17.2 69 17.2 32.2 0 41.6-17.2 69.6-16.8 29 0.6 47.2 26 65 52 20.2 29.6 28.6 58.2 29 59.8-0.6 0.6-56 21.8-56.6 85.8-0.6 53.6 43.8 79 45.8 80.6-25 37.2-64 41.2-77.6 42.2zM456.4 681v-389.8h60.6v133.2h83.8c76.6 0 130.2 52.6 130.2 128.6s-52.8 128-128.2 128h-146.4zM517 630h69.8c52.6 0 82.6-28 82.6-77.2s-30-77.6-82.8-77.6h-69.6v154.8zM841.4 288.2c38 0 73.2 19.2 89.2 49.8h1.2v-46.8h56v194c0 56.2-45 92.6-114.2 92.6-64.2 0-111.8-36.8-113.6-87.2h54.6c4.6 24 26.8 39.8 57.2 39.8 37 0 57.8-17.2 57.8-49v-21.6l-75.6-4.6c-70.2-4.2-108.2-33-108.2-83 0.2-50.4 39.4-84 95.6-84zM857.8 334.4c-32.2 0-52.8 15.6-52.8 39.2 0 24.6 19.8 38.8 57.6 41l67.2 4.2v-22c0-36.4-31-62.4-72-62.4zM1062.8 185.2c59 0 86.8 22.6 111 90.8l106.2 298h-61.6l-71.2-230.2h-1.2l-71.2 230.2h-63.2l102.4-283.8-5.6-17.2c-9.2-29.2-24.2-40.6-51-40.6-4.8 0-14 0.6-17.8 1v-46.8c3.6-0.8 18.6-1.4 23.2-1.4z" />
<glyph unicode="&#xe915;" glyph-name="app-store" d="M511.8 718.2l18.2 31.4c11.2 19.6 36.2 26.2 55.8 15s26.2-36.2 15-55.8l-175-303h126.6c41 0 64-48.2 46.2-81.6h-371c-22.6 0-40.8 18.2-40.8 40.8s18.2 40.8 40.8 40.8h104l133.2 230.8-41.6 72.2c-11.2 19.6-4.6 44.4 15 55.8 19.6 11.2 44.4 4.6 55.8-15l17.8-31.4zM354.4 282.2l-39.2-68c-11.2-19.6-36.2-26.2-55.8-15s-26.2 36.2-15 55.8l29.2 50.4c32.8 10.2 59.6 2.4 80.8-23.2zM692.2 405.6h106.2c22.6 0 40.8-18.2 40.8-40.8s-18.2-40.8-40.8-40.8h-59l39.8-69c11.2-19.6 4.6-44.4-15-55.8-19.6-11.2-44.4-4.6-55.8 15-67 116.2-117.4 203.2-150.8 261.2-34.2 59-9.8 118.2 14.4 138.2 26.8-46 66.8-115.4 120.2-208zM512 944c-274 0-496-222-496-496s222-496 496-496 496 222 496 496-222 496-496 496zM944 448c0-237.4-192.2-432-432-432-237.4 0-432 192.2-432 432 0 237.4 192.2 432 432 432 237.4 0 432-192.2 432-432z" />
<glyph unicode="&#xe916;" glyph-name="app-store-ios" horiz-adv-x="896" d="M800 896h-704c-53 0-96-43-96-96v-704c0-53 43-96 96-96h704c53 0 96 43 96 96v704c0 53-43 96-96 96zM254 191c-11-19.2-35.6-25.6-54.6-14.6-19.2 11-25.6 35.6-14.6 54.6l28.6 49.4c32.2 9.8 58.6 2.2 79.2-22.8l-38.6-66.6zM531.8 298.8h-363.8c-22 0-40 18-40 40s18 40 40 40h102l130.8 226.4-41 70.8c-11 19.2-4.4 43.6 14.6 54.6 19.2 11 43.6 4.4 54.6-14.6l17.8-30.8 17.8 30.8c11 19.2 35.6 25.6 54.6 14.6 19.2-11 25.6-35.6 14.6-54.6l-171.6-297.2h124.2c40.4 0 63-47.4 45.4-80zM728 298.8h-58l39.2-67.8c11-19.2 4.4-43.6-14.6-54.6-19.2-11-43.6-4.4-54.6 14.6-65.8 113.8-115 199.4-148 256.2-33.4 58-9.6 116 14.2 135.6 26.2-45.4 65.4-113.4 117.8-204h104c22 0 40-18 40-40 0-22.2-18-40-40-40z" />
<glyph unicode="&#xe917;" glyph-name="artstation" d="M4 205.2l86-148.6c17.268-33.834 51.861-56.6 91.772-56.6 0.010 0 0.020 0 0.030 0h570.798l-118.4 205.2zM1003.6 260l-332.4 581.4c-17.625 32.73-51.646 54.6-90.776 54.6-0.009 0-0.017 0-0.026 0h-176.799l514.6-895.2 81.4 141c3.8 6.4 42 59.4 4 118.2zM550 351l-231 400-231-400z" />
<glyph unicode="&#xe918;" glyph-name="asymmetrik" horiz-adv-x="1152" d="M1035 341.6c77.6 80 116.2 160 117 232.2 1.6 131-118.8 236.4-338.8 270-257.4 39.4-577-31-813.2-164.8 104 53 221.2 96.4 341.4 116.4 149 41 306 50.8 442.6 29.6 305-47.6 393.6-255 197.6-463.4-20.4-21.6-44-42.2-70-61.2l-301.8 452.8-380.4-571c-131.2 58.8-153 180.4-38.2 302.4 41.6 44.4 96.6 83.8 159 116.2 40 24.4 79.4 45.2 124 61.4-130.2-40.6-245.4-105.8-323.2-185.8-55.4-57.2-82.8-114.2-83.4-165.8-1-70.2 46.8-130.2 136.8-166l-69-103.4h203.2l44 68.8c44.4-2 90.6 0 137.2 5.4l-45.6-74.2h271l-65.2 106.2c37.2 10.6 73.8 23 109 37.4l91.8-143.6h203.2l-146.8 220.8c37 24.2 70 51 97.8 79.6zM659.8 180.6l-50 81.2-65.4-106.6c-46.8-7-93.4-10.2-138.4-8.8l203.8 318.6 157.4-246c-34.4-14.8-70.6-27.8-107.4-38.4z" />
<glyph unicode="&#xe919;" glyph-name="atlassian" d="M304.4 487.2c-15.4 16.4-39.4 15.4-49.6-5.6l-251.6-502c-10-20 4.8-43.4 26.8-43.4h350c11.6-0.2 22 6.4 26.8 16.8 75.8 155.6 30.2 392.6-102.4 534.2zM488.8 943.8c-244.6-386.8-17-697.2 130-991 5-10.2 15.4-16.8 26.8-16.8h348.4c22.4 0 36.8 23.6 26.8 43.4 0 0-469 941.2-480.8 964.6-10.6 21.2-37.6 21.6-51.2-0.2z" />
<glyph unicode="&#xe91a;" glyph-name="audible" horiz-adv-x="1280" d="M1280 560.2v-108l-640-400-640 399.8v108l640-400 640 400.2zM891 416.2l94.2 58.8c-74.4 111.6-201.4 185.2-345.4 185.2s-271-73.4-345.2-184.8h0.6c5 4.6 10.2 9 15.4 13.4 179.4 148.8 438.8 116.2 580.4-72.6zM450.8 378.6c33.8 23.8 73 37.4 114.8 37.4 68.8 0 130.4-36.8 172.8-95.2l90.8 56.8c-41.8 59.8-111.2 99-189.6 99-77.8 0-146.8-38.8-188.8-98zM207.2 637.8c263.6 208.6 636.4 152.8 835-124.2l1.4-2 97.6 60.8c-107 163.4-291.6 271.4-501.4 271.4-207 0-393.2-107-501-271.2 19.8 21 45.4 47 68.4 65.2z" />
<glyph unicode="&#xe91b;" glyph-name="autoprefixer" horiz-adv-x="1280" d="M636.8 928l-322-960h155l50.8 162.8h239l50.4-162.8h155l-328.2 960zM556.2 244.2l82.4 260.8h3l81.8-260.8h-167.2zM1280 150l-20 62.8-335.8 31.2 38.8-113 317 19zM355.8 244l-335.8-31.4-20-62.6 317-18.8 38.8 112.8z" />
<glyph unicode="&#xe91c;" glyph-name="avianex" d="M906.2 896h-624c-77.8 0-152.4-62.4-166.6-139.4l-113.2-617.2c-14.2-77 37.4-139.4 115.4-139.4h624c77.8 0 152.4 62.4 166.6 139.4l113.4 617c14 77.2-37.6 139.6-115.6 139.6zM789.8 201.4l-64-27-230.8 220c-29.4-20-58.4-39-83.4-54.2l44.2-128.4-35.8-25.4-81.2 122-104.8 96.2 31.4 30.8 116-62.2c18.6 21 41.6 45.2 65.6 69.8l-41 59.2-137.6 199.6 37.6 57.8 17.8 9.6 206.2-224.8 9.8-9c38.8 37.6 67.6 64.8 67.6 64.8 15.4 13 43 5.8 61.4-15.8 18-21 21.2-49.4 5.4-62.6-3.6-2.6-31-22.8-70.6-51.2l9-14.6 189.8-238.8-12.6-15.8z" />
<glyph unicode="&#xe91d;" glyph-name="aviato" horiz-adv-x="1280" d="M214.4 393l-38 83.6h-104.2l-38-83.6h-34.2l124.4 262.8 124.4-262.8h-34.4zM124.4 589.2l-39.2-85h78.4l-39.2 85zM349.8 384.4l-124.4 262.8h34.2l90.2-192 90.2 192h34l-124.2-262.8zM511 393v254.2h31v-254.2h-31zM929.2 624.2v-231.2h-34.6v231.2h-82.4v23h199.2v-23h-82.2zM1280 522.4c0-18.4-3.4-35.6-10.2-51.6s-16.4-30.2-28.4-42.2c-12-12-26.2-21.6-42.2-28.4s-33.2-10.2-51.6-10.2-35.6 3.4-51.6 10.2c-16 6.8-30.2 16.4-42.2 28.4s-21.6 26-28.4 42.2c-6.8 16-10.2 33.2-10.2 51.6s3.4 35.6 10.2 51.6c6.8 16 16.4 30.2 28.4 42.2s26 16.8 42.2 23.8c16 6.8 33.2 10.2 51.6 10.2s35.6-3.4 51.6-10.2c16-6.8 30.2-11.6 42.2-23.8 12-12 21.4-26.2 28.4-42.2 6.8-16 10.2-33.2 10.2-51.6zM1249 522.4c0 14.6-2.6 28-7.8 40.6s-12.4 23.4-21.6 32.6c-9.2 9.2-20 16.4-32.4 21.8s-25.6 8-39.6 8-27.2-2.6-39.6-8c-12.4-5.4-23.2-12.6-32.4-21.8s-16.4-20-21.6-32.6c-5.2-12.6-7.8-26.2-7.8-40.6 0-14.6 2.6-28 7.8-40.6s12.4-23.4 21.6-32.6c9.2-9.2 20-16.4 32.4-21.8s25.6-8 39.6-8 27.2 2.6 39.6 8c12.4 5.4 23.2 12.6 32.4 21.8s16.4 20 21.6 32.6c5.2 12.6 7.8 26.2 7.8 40.6zM1059.4 329v12.6l177.8 20-485.8-26.8c1.2 4.4 2.2 9.2 2.8 14.4 0.6 4 1 8.4 1.2 13l129.6 16.2-129.8-3.8c0 0.8-0.2 1.4-0.2 2.2-5.6 34.4-51 47.4-51 47.4l-2.2 52.6h47.6l38-83.6h34.2l-124.4 262.8-124.4-262.8h34.2l38 83.6h47.2l-2.2-52.8s-45.4-13-51-47.4c-0.2-0.6-0.2-1.4-0.2-2.2l-129.8 3.8 129.6-16.2c0.2-4.6 0.6-8.8 1.2-13 0.6-5.2 1.6-10 2.8-14.4l-485.8 27 177.8-20v-12.6c-11.8-1.8-21-12-21-24.4 0-13.6 11.2-24.8 24.8-24.8s24.8 11.2 24.8 24.8c0 12.4-9.2 22.6-21 24.4v11.6l160.6-18v-10.8c-11.4-2.2-19.8-12.4-19.8-24.2 0-13.6 11.2-20.4 24.8-20.4s24.8 6.8 24.8 20.4c0 12-8.6 22-19.8 24.2v9.8l56.8-6.4v-47.4h-11.8v-27.8h11.8v13.2h10v-13.2h11.8v27.6h-11.8v46.4l76.6-8.6c16.2-22.8 38-27.2 38-27.2l-0.2-13.4-10.2-0.4-0.2-24.2h8.2l0.2 10h10.4l0.2-10h8.2l-0.2 24.2-10.2 0.4-0.2 13.4s21.8 4.2 38 27.2l76.6 8.6v-46.4h-11.8v-27.6h11.8v13.2h10v-13.2h11.8v27.6h-11.8v47.4l56.8 6.4v-9.8c-11.4-2.2-19.8-12.4-19.8-24.2 0-13.6 11.2-20.4 24.8-20.4s24.8 6.8 24.8 20.4c0 12-8.6 22-19.8 24.2v10.8l160.6 18v-11.6c-11.8-1.8-21-12-21-24.4 0-13.6 11.2-24.8 24.8-24.8s24.8 11.2 24.8 24.8c-0.4 12.6-9.4 22.8-21.4 24.6zM657.8 504.2l39.2 85 39.2-85h-35.8l-3.4 80.6-3.4-80.6h-35.8z" />
<glyph unicode="&#xe91e;" glyph-name="aws" horiz-adv-x="1280" d="M360.82 553.98c-1.44-45.3 21.2-65.36 21.76-78.1-0.57-5.394-3.693-9.954-8.121-12.498l-0.079-0.042-25.6-17.92c-3.149-2.231-7.022-3.64-11.212-3.838l-0.048-0.002c-0.86 0.040-16.38-3.66-40.96 51.22-29.054-36.050-73.205-58.92-122.698-58.92-0.887 0-1.772 0.007-2.655 0.022l0.133-0.002c-32.56-1.78-120.8 18.48-116.26 112.42-3.18 76.56 68.12 124.12 141.86 120.1 14.2-0.040 43.2-0.74 93.98-12.54v31.24c5.38 52.92-29.4 93.98-89.62 87.82-4.8-0.020-38.8 1-91.68-20.22-14.72-6.76-16.6-5.64-21.5-5.64-14.82 0-8.72 42.96-5.88 48.4 10.42 12.8 71.72 36.7 131.88 36.36 4.058 0.381 8.774 0.598 13.541 0.598 37.288 0 71.476-13.277 98.092-35.362l-0.254 0.205c22.2-24.75 35.773-57.635 35.773-93.689 0-3.882-0.157-7.728-0.466-11.531l0.033 0.5-0.020-138.58zM187.98 489.2c64.86 0.94 92.32 39.94 98.58 60.94 4.92 20.1 4.1 32.82 4.1 54.8-19.34 4.64-47.18 9.7-79.12 9.74-30.3 2.28-85.64-11.26-83.48-64.52-2.48-33.58 22.24-62.8 59.92-60.96zM529.82 443.1c-15.72-1.44-23.040 9.72-25.36 20.74l-99.6 329.3c-1.94 5.56-3.22 11.3-3.84 17.16-0.067 0.417-0.105 0.897-0.105 1.386 0 4.6 3.368 8.413 7.773 9.107l0.052 0.007c0.48 0.080-4.26 0 44.5 0 17.56 1.76 23.28-12.060 25.1-20.74l71.44-281.66 66.32 281.66c1.060 6.44 5.88 22.14 25.6 20.48h34.32c4.34 0.36 22.22 1 25.36-20.74l66.84-285.26 73.74 285.26c0.96 4.36 5.44 22.74 25.36 20.74h39.44c1.7 0.26 12.3 1.62 10.5-17.16-0.86-3.7 6.82 21.32-105.5-339.8-2.3-11.020-9.64-22.18-25.36-20.74h-37.38c-21.88-2.3-25.020 19.32-25.36 21.5l-66.32 274.26-65.56-273.98c-0.32-2.18-3.46-23.8-25.36-21.5h-36.6zM1076.78 431.84c-11.76-0.020-67.84 0.6-114.72 24.58-9.258 3.994-15.621 13.043-15.621 23.578 0 0.085 0 0.17 0.001 0.255v-0.013 21.5c0 16.9 12.4 13.8 17.66 11.78 20.080-8.12 32.96-14.28 57.62-19.2 73.3-15.060 105.54 4.6 113.44 8.96 26.3 15.62 28.38 51.36 10.5 69.9-20.96 17.58-30.96 18.24-106.26 42-9.28 2.58-87.4 27.22-87.58 104.72-1.22 56.48 50.1 112.36 139.040 111.9 25.34 0.020 92.86-8.26 111.14-31.24 2.7-4.18 4.040-9.1 3.84-14.080v-20.22c0-8.88-3.24-13.32-9.74-13.32-15.42 1.72-42.78 22.34-98.32 21.5-13.78 0.72-79.78-1.82-76.82-49.94-0.86-37.92 53.22-52.14 59.4-53.78 72.92-21.94 97.3-25.58 126.24-59.16 34.28-44.5 15.8-96.6 8.7-110.88-38.16-74.98-136.84-68.88-138.52-68.84zM1157.18 222.12c-140.060-103.44-343.38-158.5-516.98-158.5-1.839-0.013-4.012-0.020-6.187-0.020-242.074 0-462.736 91.675-629.162 242.201l0.809-0.721c-13.060 11.78-1.54 27.92 14.34 18.94 181.774-105.793 400.067-168.24 632.946-168.24 0.286 0 0.573 0 0.859 0h-0.045c174.686 0.967 340.626 37.318 491.368 102.238l-8.188-3.138c23.56 10 43.54-15.6 20.24-32.76zM1215.56 288.7c-17.92 23.040-118.56 10.76-163.62 5.38-13.58-1.54-15.88 10.24-3.58 18.94 80.14 56.34 211.76 40.2 226.88 21.26 15.1-18.94-4.1-150.82-79.12-213.82-11.52-9.74-22.54-4.6-17.42 8.2 16.88 42.5 54.78 136.98 36.86 160.040z" />
<glyph unicode="&#xe91f;" glyph-name="bandcamp" horiz-adv-x="992" d="M496 944c-274 0-496-222-496-496s222-496 496-496 496 222 496 496-222 496-496 496zM592.4 291.8h-362l169.4 312.2h362l-169.4-312.2z" />
<glyph unicode="&#xe920;" glyph-name="battle-net" d="M897.22 508.76c53.74-0.36 71.14 14.86 77.84 24.74 24.94 32.64-14.12 95.2-105.7 142.66 35.52 67.16 60.22 127.36 72.68 170.6 6.76 23.66 2.18 38 0.9 40.5-3.44-21.040-31.7-96.92-96.4-200.1-50 22.44-113.040 40.2-187.54 47.6-17.88 33.88-69.76 127.72-120.96 177.86-33.68 33.1-60.64 45.24-81.68 46.94h-0.1c-27.66 3.1-45.34-11.7-54.8-22-34.4-37.060-48.66-97.74-50-168.14-14.48 24.7-34.34 49.26-57 51.86h-0.36c-41.32 6.96-76.78-58.44-72-162.58-76.72-2.76-142-11.5-186-22.46-19.8-4.9-32.44-14.54-35.52-19.44 2 0.76 44.8 18.44 223.12 18.44 10.44-106 59.5-203.64 52-186.38-19.46-30.8-76.48-124.72-94.62-195.4-11.74-45.76-8.74-75.22 0.3-94.28 11.14-25.5 32.82-33.44 46.4-36.52 50-11.42 110.76 7.26 173.4 42.28-15.060-25.68-27.8-57.020-18.12-78.68 14.62-39.3 88.98-37.32 176.88 18.9 40.36-64.36 80.14-115.88 111.4-148.24 5.060-5.444 10.814-10.141 17.146-13.981l0.354-0.199c10.28-6.42 17.16-6.74 17.16-6.74-16.48 13.5-68 76-125.080 183.56 44.44 32 91.3 77.74 134.94 138.54 245.64-9.2 286.58 49.52 296 63.28 29.34 39.76 6.86 114.88-114.64 187.38zM741.52 296.32c47.62 75.42 60.68 135.54 58.9 184.66 55.72-35.14 94.36-75.16 98.12-117.66 2.28-25.86-16.2-58.24-157.020-67zM433.8 184.62c19.52 12.46 39.060 26.24 58.4 40.98 13.36-26.66 27.2-52.2 41.2-76.38-81.2-43.72-137.68-25.52-99.6 35.4zM863.8 527.32c-20.58 10.68-42.32 20.68-64.76 30.1 12.401 18.306 27.444 42.397 41.783 66.948l3.697 6.852c78.12-48.2 91.8-106.36 19.28-103.9zM558.36 164c-11.020 22.7-22 47-33 72.88 86.5-2.54 124.84 37.46 126.56 40.82 0-0.14-50-31.28-125.060-24.5 61.995 51.997 117.63 106.96 168.532 166.112l1.588 1.888q26.12 30.62 49.86 62.22c-0.72 0.58-3.080 6-33.020 24-103.4-120.54-204.68-196-265.5-231.84-41.18 22.36-81.68 63.56-111.42 122.98-40 79.84-60 164.78-63.14 232.14 24.6-1.82 50.54-4.34 77.7-7.76-44.58-73.6-28.78-126-26.94-128.46 0 0.14-1.9 58.34 40.28 119.14 20.050-115.181 51.073-217.794 92.801-314.714l-3.461 9.034c1.86 0.76 3.68-1.76 37.34 16.5-52.66 148.94-67.52 276.34-68 346.86 40 24.84 96.36 39.6 163.26 35.62 89.14-5.34 172.72-30.5 232.64-61.42q-21.38-31.32-46.66-64.94c-41.46 75.44-94.52 87.76-97.72 87.44 0.22 0 51.8-28.14 83.040-94.44-64.552 24.692-141.94 46.634-221.675 61.978l-9.005 1.442c-18.471 3.781-45.312 8.033-72.414 11.446l-6.366 0.654c-0.14-0.9-3.62-3.7-4.32-40.66 155.74-28.98 273.3-79.78 334.46-114.42 1.48-47.1-13.9-103.22-50.82-159.14-49.2-74.62-112.78-134.46-169.54-170.86zM613.16 738c-89.12 3.32-147.16-14.86-189.38-41.34 4 104.6 42.62 152.76 76.42 150.56 33.8 8.48 109.8-104.32 112.96-109.22zM351.86 731.8c0.96-24.22 3.18-49.24 6.42-74.56-29.1 1.7-57.48 2.5-84.8 2.52-0.16-6.48-0.24 102 49.34 99.18h0.18c11.52-2.18 21.26-13.76 28.86-27.14zM295.74 407.8c41.52-79.4 86.6-121.14 130.5-144.62-93.58-49.52-155.060-40-169.84-9.020-0.4 0.42-22.26 30.6 39.34 153.62z" />
<glyph unicode="&#xe921;" glyph-name="behance" horiz-adv-x="1152" d="M464 485.6c63.6 30.4 96.8 76.4 96.8 148 0 141.2-105.2 175.6-226.6 175.6h-334.2v-708.8h343.6c128.8 0 249.8 61.8 249.8 205.8 0 89-42.2 154.8-129.4 179.4zM155.8 688.2h146.2c56.2 0 106.8-15.8 106.8-81 0-60.2-39.4-84.4-95-84.4h-158v165.4zM322.4 220.8h-166.6v195.2h169.8c68.6 0 112-28.6 112-101.2 0-71.6-51.8-94-115.2-94zM1039.4 702.2h-287.4v69.8h287.4v-69.8zM1152 349.6c0 151.8-88.8 278.4-249.8 278.4-156.4 0-262.6-117.6-262.6-271.6 0-159.8 100.6-269.4 262.6-269.4 122.6 0 202 55.2 240.2 172.6h-124.4c-13.4-43.8-68.6-67-111.4-67-82.6 0-126 48.4-126 130.6h370.2c0.6 8.4 1.2 17.4 1.2 26.4zM780.8 412c4.6 67.4 49.4 109.6 117 109.6 70.8 0 106.4-41.6 112.4-109.6h-229.4z" />
<glyph unicode="&#xe922;" glyph-name="behance-square" horiz-adv-x="896" d="M373 374c0-38.6-28-50.8-62.4-50.8h-90.2v105.8h92c37.2-0.2 60.6-15.6 60.6-55zM357.6 538.6c0 35.4-27.4 43.8-57.8 43.8h-79.2v-89.6h85.4c30.2 0 51.6 13.2 51.6 45.8zM622.2 492.2c-36.6 0-61-22.8-63.4-59.4h124.4c-3.4 37-22.6 59.4-61 59.4zM896 800v-704c0-53-43-96-96-96h-704c-53 0-96 43-96 96v704c0 53 43 96 96 96h704c53 0 96-43 96-96zM543.4 590h155.6v37.8h-155.6v-37.8zM457.4 369.4c0 48.2-22.8 89.8-70 103.2 34.4 16.4 52.4 35.4 52.4 74 0 76.4-57 95-122.8 95h-181v-384h186.2c69.8 0.4 135.2 33.8 135.2 111.8zM760 399c0 82.2-48.2 150.8-135.2 150.8-84.8 0-142.2-63.6-142.2-147.2 0-86.6 54.6-146 142.2-146 66.4 0 109.4 29.8 130.2 93.6h-67.4c-7.4-23.8-37.2-36.2-60.4-36.2-44.8 0-68.2 26.2-68.2 70.6h200.4c0.2 4.6 0.6 9.6 0.6 14.4z" />
<glyph unicode="&#xe923;" glyph-name="bimobject" horiz-adv-x="896" d="M832 896h-768c-35.2 0-64-28.8-64-64v-768c0-35.2 28.8-64 64-64h768c35.2 0 64 28.8 64 64v768c0 35.2-28.8 64-64 64zM704 381.2c0-98.8-22.8-165.2-207.6-165.2h-33.8c-88.2 0-124.8 29.8-140.8 77.6h-1.8v-69.6h-128v464h128v-149.4h2.2c9.2 61 79.4 77.6 139.4 77.6h34.6c184.8 0 207.6-66.2 207.6-165v-70zM576 439v-45.8c0-43.4-6.8-67.6-76.8-67.6h-90.6c-57.8 0-88.2 13-88.2 71.4v38c0 58.6 30.4 71.4 88.2 71.4h90.6c70 0.4 76.8-24 76.8-67.4z" />
<glyph unicode="&#xe924;" glyph-name="bitbucket" d="M44.4 896c-0.12 0.002-0.261 0.003-0.402 0.003-17.533 0-31.773-14.101-31.997-31.581v-0.021c0.037-2.016 0.182-3.956 0.428-5.864l-0.028 0.264 135.8-824.2c3.529-20.664 21.221-36.222 42.581-36.4h651.419c0.126-0.002 0.275-0.003 0.425-0.003 15.838 0 28.988 11.506 31.549 26.614l0.026 0.189 135.8 833.6c0.253 1.511 0.397 3.251 0.397 5.026 0 15.836-11.503 28.985-26.608 31.548l-0.189 0.026c-1.655 0.226-3.595 0.371-5.563 0.4l-933.637 0.4zM616.2 300.4h-208l-56.2 294h314.6l-50.4-294z" />
<glyph unicode="&#xe925;" glyph-name="bitcoin" d="M1008 448c0-273.934-222.066-496-496-496s-496 222.066-496 496 222.066 496 496 496 496-222.066 496-496zM724.698 518.66c9.874 65.998-40.382 101.478-109.1 125.146l22.292 89.404-54.426 13.562-21.702-87.048c-14.308 3.566-29.004 6.928-43.606 10.26l21.858 87.62-54.396 13.562-22.306-89.372c-11.844 2.698-23.47 5.364-34.754 8.168l0.062 0.28-75.060 18.74-14.478-58.124s40.382-9.254 39.53-9.826c22.044-5.502 26.028-20.088 25.36-31.65l-25.392-101.85c1.52-0.388 3.488-0.946 5.658-1.814-1.814 0.45-3.752 0.946-5.752 1.426l-35.592-142.676c-2.698-6.696-9.534-16.74-24.942-12.928 0.542-0.79-39.56 9.874-39.56 9.874l-27.020-62.294 70.828-17.654c13.176-3.302 26.090-6.758 38.8-10.012l-22.524-90.426 54.364-13.562 22.306 89.466c-0.128-0.559 14.408-4.432 29.005-8.151l14.369-3.103-22.23-89.046 54.426-13.562 22.524 90.256c92.808-17.562 162.598-10.478 191.972 73.454 23.672 67.58-1.178 106.562-50.008 131.982 35.56 8.196 62.348 31.584 69.494 79.898zM600.344 344.302c-16.82-67.58-130.616-31.046-167.51-21.886l29.888 119.798c36.892-9.206 155.2-27.434 137.622-97.912zM617.178 519.636c-15.346-61.472-110.062-30.24-140.786-22.584l27.096 108.654c30.726-7.656 129.672-21.946 113.69-86.070z" />
<glyph unicode="&#xe926;" glyph-name="bity" horiz-adv-x="992" d="M156.8 825.6c190.8 178.4 492.2 182.4 686.2-7.6 28.6-28.2-12.8-74.2-44.8-43-169.6 164.8-431.6 160.6-597.8 6.4-32.6-30.2-73 16.6-43.6 44.2zM354.6-11.6c38.6-11.4 58.6 47.2 15.8 60-224.4 67.8-351.6 299.4-295 522 10 39.2-49.8 56.2-60.4 14.2-64.2-254.8 82.2-519.6 339.6-596.2zM650.8-7.6c243.8 80.4 385.8 333.8 328.8 582-9 39.4-69.8 27.6-60-15.8 48.4-215.4-74.2-435.8-286.4-506.8-42.4-14-20.8-72 17.6-59.4zM525 150.4l0.4 143.6c0 16.4-13.2 29.6-29.6 29.6s-29.6-13.4-29.6-29.6l-0.4-143.6c0-16.4 13.2-29.6 29.6-29.6s29.6 13.2 29.6 29.6zM667 688.4c4.2-181.8 9.4-263.8-171-265-185 1.4-173.8 88.6-171 265 0 43.6-65 39.2-65 0v-143.2c0-138.6 121.4-181.8 236-180.2 114.6-1.6 236 41.6 236 180.2v143.2c0 39.2-65 43.6-65 0z" />
<glyph unicode="&#xe927;" glyph-name="blackberry" d="M332 726.2c0-46.8-32.8-98.2-145-98.2h-140.2l42 177.6h135.6c84.2 0 107.6-46.6 107.6-79.4zM584.4 805.6h-135.6l-37.4-177.6h140.2c107.6 0 140.2 51.4 140.2 98.2 0.2 32.8-23.2 79.4-107.4 79.4zM177.6 543.8h-135.6l-42-177.6h140.2c112.2 0 145 46.8 145 98.2 0 32.6-23.4 79.4-107.6 79.4zM537.8 543.8h-135.6l-37.4-177.6h140.2c107.6 0 140.2 46.8 140.2 98.2 0 32.6-23.4 79.4-107.4 79.4zM916.4 651.4h-135.6l-37.4-177.6h140.2c107.6 0 140.2 46.8 140.2 98.2 0.2 32.6-23.2 79.4-107.4 79.4zM860.4 375.6h-135.6l-37.4-177.6h140.2c112.2 0 140.2 46.8 140.2 98.2 0 32.6-23.2 79.4-107.4 79.4zM481.6 268h-135.6l-37.4-177.6h140.2c112.2 0 140.2 51.4 140.2 98.2 0.2 32.6-23.2 79.4-107.4 79.4z" />
<glyph unicode="&#xe928;" glyph-name="black-tie" horiz-adv-x="896" d="M0 896v-896h896v896h-896zM633 245.6l-185-177.4-185 177.4 129 368-129 173.2h369.8l-128.8-173.2 129-368z" />
<glyph unicode="&#xe929;" glyph-name="blogger" horiz-adv-x="896" d="M324.8 568c9.6 9.8 12.4 10.2 72.8 10.2 54.4 0 56.2-0.2 64.2-4.2 11.6-5.8 16.6-14 16.6-27.2 0-11.8-4.8-20-15.2-26.8-5.6-3.6-9-3.8-62.2-4.2-32.8-0.2-59 0.4-63 1.6-20.6 5.8-28.2 35.4-13.2 50.6zM447.6 379c-107.8 0-111.6-0.4-120.4-8.2-7-6.2-11.4-18.8-10.2-27.8 1.4-9.4 9.6-20.2 18.4-24 4.4-2 28.2-3.4 112.6-2.4l95.8 1.2 18.4 3c18 10.2 21 34.8 6.2 48.8-10.6 9.4-10 9.4-120.8 9.4zM894.4 118.8c-7-56.8-46-100.8-102.2-115-14.4-3.6-19.4-3.8-345.8-3.6-315.6 0-331.8 0.2-344 3.6-16.8 4.4-31.2 11-44.6 20-11.2 7.6-27.8 23.6-34 32.8-7.6 11.2-16.4 30.6-20 44s-3.8 18.8-3.8 346.8c0 326.2 0 333.2 3.6 347.4 12.6 49.4 51.8 87.2 102.4 98.4 14.6 3.2 664.2 3.8 680 0.6 42.4-8.6 75.8-34.2 95.2-72.8 15.4-30.6 14 3 14.6-361.2 0.4-231.6 0-329-1.4-341zM723.6 489.2c-2.2 10-8.4 19.2-15.4 23-2.2 1.2-16 2.6-31 3.4-24.8 1.2-27.6 1.6-35.6 6.2-12.4 7.2-15.8 15.2-16 36.6 0 40.8-17 78.8-50.6 113-24 24.4-50.6 41-81.2 50.2-7.2 2.2-23.6 3-78.4 3.6-85.8 1-105-0.8-134.2-12.4-54-21.4-92.6-66.8-106.8-124.8-2.6-10.8-3.2-28.4-3.8-128.6-0.8-125.6 0-144.2 8-169 19.4-61.4 74.2-106.8 129.2-116.8 18.4-3.4 244.4-4.2 267.4-1 40.2 5.4 71.8 21.6 101.4 51.8 21.4 21.8 34.8 45.6 43.6 77 6.4 21.8 5.8 176.8 3.4 187.8z" />
<glyph unicode="&#xe92a;" glyph-name="blogger-b" horiz-adv-x="896" d="M893.2 514.6c-3.6 16-13.6 30.8-25 37-3.6 2-26 4.4-50 5.4-40.2 1.8-44.6 2.6-57.4 10-20.2 11.8-25.6 24.6-25.8 59-0.2 66-27.6 127.4-81.8 182.6-38.6 39.4-81.8 66-131 81-11.8 3.6-38.2 4.8-126.6 5.8-138.8 1.6-169.6-1.2-216.8-20-87-34.4-149.4-107.6-172.2-201.2-4.2-17.6-5.2-45.8-6.2-207.8-1.2-203 0.2-232.8 12.8-273 31.2-99.2 119.8-172.6 208.8-188.6 29.6-5.4 394.6-6.6 432-1.6 65 8.8 116 35 163.8 83.8 34.6 35.4 56.2 73.6 70.4 124.2 9.8 35.2 9 285.6 5 303.4zM249 641.8c15.6 15.8 20 16.4 117.6 16.4 87.8 0 90.8-0.2 103.6-6.8 18.6-9.4 26.8-22.6 26.8-43.8 0-19-7.6-32.4-24.6-43.2-9.2-5.8-14.6-6.2-100.6-6.6-53-0.4-95.4 0.8-101.6 2.4-33.2 9.4-45.6 57-21.2 81.6zM632.6 242.2l-29.8-4.8-155-1.8c-136.2-1.6-174.6 0.8-181.8 4-14.2 6.2-27.6 23.4-29.8 38.8-2.2 14.6 5.2 34.6 16.4 44.8 14.2 12.8 20.4 13.2 194.6 13.4 179.2 0.2 178.2 0.2 195.2-15.6 24.2-22.6 19-62.4-9.8-78.8z" />
<glyph unicode="&#xe92b;" glyph-name="bluetooth" horiz-adv-x="896" d="M585.2 617.8l-85.8-85.8-0.6 172 86.4-86.2zM498.8 178.2l86.2 86.2-85.8 85.8-0.4-172zM832 441.2c0-411.2-143.8-505.2-370.2-505.2s-397.8 94-397.8 505.2 166.8 518.8 393.2 518.8 374.8-107.8 374.8-518.8zM515 441.2l158.8 177.2-250.2 268.6v-353.8l-147.6 147.6-54-53.8 185.4-186-185.4-186 53.8-53.8 147.6 147.6 4.6-340 254.8 255-167.8 177.4z" />
<glyph unicode="&#xe92c;" glyph-name="bluetooth-b" horiz-adv-x="640" d="M392.96 439.954l185.252 206.666-291.962 313.38v-412.66l-172.222 172.222-62.812-62.81 216.122-216.798-216.122-216.798 62.812-62.81 172.222 172.222 5.43-396.568 297.104 297.288-195.824 206.666zM474.68 645.946l-99.954-99.956-0.676 200.59 100.63-100.634zM374.726 333.92l99.954-99.956-100.63-100.632 0.676 200.588z" />
<glyph unicode="&#xe92d;" glyph-name="bootstrap" horiz-adv-x="896" d="M584.6 336.14c0-84.82-79.44-82.86-87.84-82.86h-161.78v163.38h161.78c85.12 0 87.84-63.8 87.84-80.52zM484.3 482.4c1.34 0 76.88-2 76.88 72.62 0 31.040-7.020 71.74-76.88 71.74h-149.32v-144.36h149.32zM896 746.66v-597.32c-0.249-82.378-66.962-149.091-149.316-149.34h-597.344c-82.378 0.249-149.091 66.962-149.34 149.316v597.344c0.249 82.378 66.962 149.091 149.316 149.34h597.344c82.378-0.249 149.091-66.962 149.34-149.316v-0.024zM676.1 324.28c0 43.14-13.3 116.58-98.1 134.7v1.46c45.82 19.56 74.68 56.5 74.68 111.28 0 14 4 129.56-155.2 129.56h-254v-522.66c256.46 0 279.74-3.36 327.2 11.42 28.42 8.84 105.42 35.96 105.42 134.24z" />
<glyph unicode="&#xe92e;" glyph-name="btc" horiz-adv-x="768" d="M620.408 474.724c55.46 28.36 90.754 78.78 82.56 162.6-10.716 114.702-104.916 153.146-229.7 163.858v158.818h-97.056v-154.406c-25.21 0-51.050-0.63-76.888-1.26v155.666h-97.056v-158.818c-35.684-1.078-77.244-0.552-194.74 0v-103.356c76.628 1.356 116.834 6.28 126.046-42.854v-434.858c-5.85-38.984-37.048-33.37-106.51-32.142l-19.534-115.332c176.962 0 194.74-0.63 194.74-0.63v-136.010h97.056v134.12c26.468-0.63 52.308-0.63 76.888-0.63v-133.49h97.056v136.010c162.598 8.824 271.294 49.788 285.79 202.934 11.342 122.892-46.64 177.724-138.652 199.78zM301.216 690.894c54.83 0 226.252 17.014 226.252-97.056 0-109.030-171.42-96.424-226.252-96.424v193.48zM301.216 187.342v213.016c65.544 0 266.254 18.276 266.254-106.51-0.002-120.372-200.71-106.506-266.254-106.506z" />
<glyph unicode="&#xe92f;" glyph-name="buffer" horiz-adv-x="896" d="M855.68 198.66l-393-195.64c-4.325-1.906-9.368-3.015-14.67-3.015s-10.345 1.109-14.909 3.108l0.239-0.093-393.020 195.64c-8 4-8 10.56 0 14.58l94.12 46.76c4.332 1.905 9.381 3.015 14.69 3.015s10.358-1.109 14.93-3.108l-0.24 0.094 269.52-134c4.324-1.916 9.367-3.031 14.67-3.031s10.346 1.115 14.907 3.124l-0.237-0.093 269.52 134c4.328 1.906 9.375 3.016 14.68 3.016s10.352-1.109 14.92-3.109l-0.24 0.093 94.12-46.86c8.1-3.92 8.1-10.48 0-14.48zM855.68 471.72l-94.12 46.86c-4.328 1.906-9.375 3.016-14.68 3.016s-10.352-1.109-14.92-3.109l0.24 0.093-269.52-134.16c-4.327-1.897-9.369-3.001-14.67-3.001s-10.343 1.104-14.911 3.094l0.241-0.094-269.52 134.16c-4.332 1.905-9.381 3.015-14.69 3.015s-10.358-1.109-14.93-3.108l0.24 0.094-94.12-46.86c-8-4-8-10.58 0-14.62l393.020-195.6c4.325-1.906 9.368-3.015 14.67-3.015s10.345 1.109 14.909 3.108l-0.239-0.093 393 195.6c8.1 4.040 8.1 10.6 0 14.62zM40.32 699.16l393-180.58c4.348-1.756 9.39-2.775 14.67-2.775s10.322 1.019 14.94 2.871l-0.27-0.096 393.020 180.58c8 3.72 8 9.78 0 13.48l-393.020 180.56c-4.345 1.775-9.387 2.805-14.67 2.805s-10.325-1.030-14.936-2.901l0.266 0.096-393-180.56c-8.1-3.7-8.1-9.76 0-13.48z" />
<glyph unicode="&#xe930;" glyph-name="buromobelexperte" horiz-adv-x="896" d="M0 896v-256h256v256h-256zM240 656h-224v224h224v-224zM320 896v-256h256v256h-256zM560 656h-224v224h224v-224zM640 896v-256h256v256h-256zM880 656h-224v224h224v-224zM0 576v-256h256v256h-256zM240 336h-224v224h224v-224zM320 576v-256h256v256h-256zM560 336h-224v224h224v-224zM640 576v-256h256v256h-256zM880 336h-224v224h224v-224zM0 256v-256h256v256h-256zM240 16h-224v224h224v-224zM320 256v-256h256v256h-256zM560 16h-224v224h224v-224zM640 256v-256h256v256h-256z" />
<glyph unicode="&#xe931;" glyph-name="buy-n-large" horiz-adv-x="1152" d="M576 896c-309.46 0-560.42-200.64-560.42-448s250.96-448 560.42-448 560.42 200.64 560.42 448-250.96 448-560.42 448zM405.22 181.62l-277.020-2.72 154.5 581.48h266.88c126.3 0 169.86-57.3 156-145.68-0.864-5.412-1.909-10.036-3.21-14.551l0.21 0.851c-10.321 2.453-22.172 3.86-34.351 3.86-0.024 0-0.048 0-0.072 0h0.004c-84.7 0-153.38-67.76-153.38-151.3 0-74.28 54.28-136 125.86-148.9-36.48-74.32-112.32-121.84-235.42-123.040zM716 545.78h64l-44.32-180.62h-70.82l-22.38 71.26-15.66-71.26h-75.66l53.26 180.62h62.68l30-73.5zM1007.72 181.62h-394.14l31.68 122.38c6.856-1.057 14.765-1.66 22.814-1.66 0.044 0 0.088 0 0.133 0h-0.007c84.68 0 153.38 67.74 153.38 151.3 0 65.3-42 120.92-100.76 142.12l42.66 164.7h185l-106.1-410.72h207.74zM423.4 421.22h-49.4l-27.6-112.94h49.4c32.28 0 64.22 6.36 75.88 53.3 11.12 44.62-15.98 59.64-48.28 59.64zM466 620h-42.68l-23.32-95.42h42.74c36 0 70.76 29.28 78.42 60.28 9.3 37.72-19.020 35.14-55.16 35.14z" />
<glyph unicode="&#xe932;" glyph-name="buysellads" horiz-adv-x="896" d="M448 658.6l85.8-321.4h-171.6l85.8 321.4zM896 800v-704c0-53-43-96-96-96h-704c-53 0-96 43-96 96v704c0 53 43 96 96 96h704c53 0 96-43 96-96zM765.4 149.4l-189 597.4h-256.8l-189-597.4h181.4l223.4 183.2 48.4-183.2h181.6z" />
<glyph unicode="&#xe933;" glyph-name="canadian-maple-leaf" d="M767.6 256.6c5 5 210.4 184.8 210.4 184.8l-35 15c-20 9.8-14.8 23-10 34.8 4.8 15.2 40.2 134.6 40.2 134.6s-95.4-20-115.4-25c-15-4.8-20 5-25 15s-30 64.8-30 64.8-105.2-119.8-110.2-124.6c-20-15-40.2 0-35.2 20 0 20 55.2 259.2 55.2 259.2s-60.2-34.8-80.2-44.8c-15-10-25.2-10-35.2 10-10.2 15-85.4 159.6-85.4 159.6s-75-144.6-85-159.6c-10-20-20-20-35.2-10-20 10-80.2 44.8-80.2 44.8s55.2-239.2 55.2-259.2c5-20-15-35-35.2-20-5 5-110.2 124.6-110.2 124.6s-25-54.6-30-64.6-10-19.8-25-15c-20.2 5-115.4 25-115.4 25s35.2-119.4 40.2-134.6c4.8-12 10-25-10-34.8l-35-15.2s205.2-179.8 210.4-184.8c10.2-10 20-15 10.2-45-10.2-30-20.2-70.2-20.2-70.2s190.4 40.2 210.6 45.2c17.4 1.8 36.6-5 36.6-25s-11.6-225.6-11.6-225.6h60s-11.6 205.4-11.6 225.6 19 26.8 36.8 25c20-5 210.4-45.2 210.4-45.2s-10 40.2-20 70.2 0 35 10 45z" />
<glyph unicode="&#xe934;" glyph-name="cc-amazon-pay" horiz-adv-x="1152" d="M249.4 556.4c0.2 23.6 0 47 0 70.6v70.6c0 2.6 0.8 4 2.8 5.4 23 16 48.2 24.2 76.4 22.2 25-1.8 45.4-14 56.2-43.4 6.6-17.8 8.2-36.4 8.2-55.4 0-17.4-1.4-34.6-6.8-51.2-11.4-35.6-37.4-49.4-71.4-47.8-23.4 1-43.8 10-62.8 23.4-1.8 1.6-2.8 3.2-2.6 5.6zM559.2 527.2c9.2-3.6 18.6-4 28.2-3 23.2 2.4 43.8 11.4 62.6 25 1.8 1.2 2.6 2.6 2.6 5-0.2 7.8 0 15.8 0 23.6 0 8-0.2 16 0 24 0 2.8-0.8 4-3.6 4.4-14 1.8-27.8 4.4-41.8 5.8-14 1.2-28 0.6-41.6-3.8-13.4-4.4-23.4-12.4-27.4-26.2-3.2-10.8-3.2-21.6 0.2-32.4 3.2-11 10.4-18.4 20.8-22.4zM1152 800v-704c0-53-43-96-96-96h-960c-53 0-96 43-96 96v704c0 53 43 96 96 96h960c53 0 96-43 96-96zM737 752.2c0.8-3.4 1.8-6.8 3.2-10.2 33-81.2 65.8-162.6 99-243.8 2.8-7 3.4-12.8 0.4-19.8-5.6-12.4-9.8-25.2-15.6-37.4-5.2-11-13.4-19-25.4-22.4-8.4-2.2-17-2.6-25.8-1.8-4.2 0.4-8.4 1.4-12.6 1.6-5.6 0.4-8.4-2.2-8.6-8-0.2-5.6-0.2-11.2 0-16.6 0.2-9.2 3.2-13.4 12.4-15 9.4-1.6 18.8-3.2 28.4-3.4 28.6-0.6 51.4 10.8 66.2 35.8 5.8 9.8 11.2 20.2 15.4 30.8 39.6 100.2 79 200.6 118.4 301 1.2 3 2.2 6 2.6 9.2 0.8 4.8-1.4 7.2-6.2 7.4-11.2 0.2-22.2 0-33.4 0-6.2 0-10.6-2.8-12.8-8.6-0.8-2.2-1.8-4.6-2.6-6.8l-58.2-167.4c-4.2-12.2-8.4-24.2-13-37.2-0.8 1.8-1.2 2.8-1.6 3.8-21.6 59.8-43.2 119.8-64.8 179.6-3.4 9.4-7 19-10.6 28.4-1.8 5-5.4 8-10.8 8-12.8 0.2-25.6 0.4-38.4 0.2-4.4 0-6.6-3.2-5.6-7.4zM484.8 548c3.4-23.4 15.2-41.6 36-53.2 19.8-11 41.4-12.4 63.4-9.2 25.4 3.8 47.8 14.6 67.6 31 0.8 0.6 1.6 1.2 2.8 2 1-6.4 1.8-12.4 3-18.4 1-5.2 4.2-8.6 9-8.8 9.2-0.2 18.2-0.2 27.4 0 4.6 0.2 7.6 3.2 8 7.8 0.2 1.6 0.2 3.2 0.2 4.6v177.6c0 7.2-0.4 14.4-1.4 21.6-3.2 21.6-12.4 39.4-31.8 50.8-11.2 6.6-23.6 10-36.4 11.8-6 0.8-12 1.4-18.2 2.2h-20c-1.6-0.2-3.2-0.6-5-0.6-16.4-0.8-32.6-2.8-48.4-7-10.2-2.6-20-6.4-30-9.8-6-2-9-6.4-8.8-13 0.2-5.6-0.2-11.2 0-16.6 0.2-8.2 3.6-10.4 11.4-8.2 13 3.4 26.2 7 39.4 9.6 20.6 3.8 41.4 5.4 62.2 2.4 10.8-1.6 21-4.8 28.2-14 6.2-8 8.4-17.6 8.8-27.4 0.6-13.8 0.4-27.8 0.6-41.6 0-0.8-0.2-1.4-0.4-2.4-0.8 0-1.6 0-2.2 0.2-17.6 4.2-35.4 7.2-53.6 8.2-19 1-37.8-0.2-55.8-6.4-21.6-7.6-39-20.6-49.2-41.6-8.2-16.6-9.2-34-6.8-51.6zM197.4 746.2v-350.6c0-1.6 0-3.4 0.2-5 0.4-5 3.4-8.2 8.2-8.4 11.8-0.2 23.6-0.2 35.4 0 5 0 8 3.4 8.2 8.2 0.2 1.6 0.2 3.4 0.2 5v121.4c1.8-1.4 2.8-2.4 3.8-3.2 30-25 64.4-33.2 102.2-25.8 34.2 6.8 57.8 27.8 73.4 58.4 11.6 23.2 16.6 48.2 17.4 74 1 28.6-2 56.8-13.6 83.4-14.2 32.8-37.8 54.6-73.4 61.8-5.4 1.2-11 1.6-16.4 2.4h-14c-2.4-0.4-4.8-0.6-7.2-1-23.4-2.8-44.6-11.6-63.6-25.4-4-2.8-7.8-6-11.8-9-0.2 1-0.6 1.6-0.8 2.4-0.8 4.6-1.4 9.2-2.2 13.8-1.2 7.8-5 11-12.8 11.2h-19.4c-11.8 0.2-13.8-2-13.8-13.6zM987.2 282c-5.4 1.4-10.2 0-15.2-2-87.8-36.8-179-60.4-273.6-71.6-29-3.4-58.2-5.6-87.4-6.4-53.2-1.4-106.4 1.6-159.2 8.6-35.6 4.8-71 11.4-106 19.8-74 17.8-145.4 43.4-213.4 77.6-17.6 8.8-34.8 18.6-52.2 28-7.6 4.2-12.4 3-16.4-4.2v-3.4c2.4-3.2 4.4-6.8 7.4-9.6 72-64.4 153.2-113 244-145.8 43.8-15.8 88.8-27.4 134.6-35 28-4.6 56-7.6 84.4-9 6-0.2 12-0.4 18-0.8 1.4 0 2.8-0.4 4.2-0.6h35.4c1.4 0.2 2.8 0.6 4.2 0.6 29.8 0.8 59.6 3.6 89.2 8 42.8 6.4 84.8 16.2 125.8 29.4 59.2 19.2 115.4 44.8 166.8 80.2 5.6 3.8 11.4 7.6 16 12.4 8.6 8.8 4.6 20.8-6.6 23.8zM1088 337.4c-1.6 8.4-8 11.6-15.2 14-11.4 3.8-23.2 5.6-35.2 6.6-22 1.8-44 0.8-65.6-3.2-24-4.4-46.8-12.2-67-26.2-2.4-1.6-4.8-3.6-6.2-6-1.2-1.8-1.4-4.6-1-6.8 0.6-2.6 3.4-3.2 6-3 1.2 0 2.4 0 3.6 0.2l39 4.2c19.2 1.8 38.4 3 57.6 1.6 8.2-0.6 16.2-2.4 24-4.4 8.6-2.2 12.4-8.8 12.8-17.4 0.6-13.4-2.4-26.2-5.8-39-7-25.8-16.6-50.8-26.6-75.6-0.6-1.6-1.4-3.4-1.6-5-0.8-5 2-8 6.8-7 2.8 0.6 6 2.2 8 4.2 7.4 7.2 15 14.4 21.2 22.4 21.4 27.6 34 59.2 41.4 93.2 1.4 6 2.4 12.2 3.4 18.2 0.4 9.4 0.4 19.2 0.4 29z" />
<glyph unicode="&#xe935;" glyph-name="cc-amex" horiz-adv-x="1152" d="M650.2 624.4c0 32.8-28.2 36.8-54.8 36.8l-78.2 0.6v-138.6h32.8v50.2h36c36.8 0 29-20.6 29.6-50.2h33.2v27c0 18.4-3 30.2-22 36.8 14.8 6 23.6 21.4 23.4 37.4zM591.4 601.8h-41.4v30.6h42c10.2 0 21.4-2 21.4-14.8 0-13.2-10.6-15.8-22-15.8zM558 422.8h-105.4l-42-45.6-41 45.6h-133l-0.2-138.6h130.8l42.6 46 40.8-46h64.4l0.2 46.6c37.8 0 98.6-9.2 98.6 46.6 0 34.6-24.6 45.4-55.8 45.4zM350.4 313.4h-81.2v27.6h72.6v28.2h-72.6v25h83.4l35.8-40.4zM482 297l-50.6 56.2 50.6 54.8zM557.6 359h-42.4v35.2h43c11.2 0 20.4-4.6 20.4-16.8 0-12.8-9.2-18.4-21-18.4zM494.4 632.4v29.2h-111v-138.6h111v28.6h-77.8v27.6h75.6v28.2h-75.6v25zM1152 449.2h-0.4zM762.8 385.4c0 32.8-28.2 37.4-54.2 37.4h-78.8l-0.2-138.6h33.2l0.2 50.6h35.2c22 0 29.6-4 29.6-27.6l-0.2-23h33.2l0.2 27.6c0 17.8-3.6 30.2-22 36.8 15.4 6.2 23.6 21.6 23.8 36.8zM704.4 363h-41.4v31.2h42c10.2 0 21.4-2 21.4-14.8 0-13.8-10.8-16.4-22-16.4zM358.8 523v138.6h-55.2l-39.4-94-43.4 94h-54.2v-131.4l-56.2 131.4h-49l-59.4-138.6h35.8l12.8 30.6h69l12.8-30.6h67.6v108.4l48-108.4h29.2l48 108.4v-108.4zM62.4 582.4l22.4 55.2 23-55.2zM1017.2 264.6v9c-21.6-11.2-7.8-9-313.4-9 0 50.4 0.2 47.8 0 50.4-3.4 0.2-6.4 0.2-18.8 0.2 0-35.8-0.2-13.6-0.2-50.6h-79.2c0 24.2 0.2 30.6 0.2 58.4-20-12-45.6-12.8-68.6-12.4 0-29.4-0.2-16.6-0.2-46h-97.8c-10.2 11.4-5.4 6.2-30.8 34.8-6.4-7-25.6-27.8-32.2-34.8h-164v184.6h166.2c10-11.2 5.6-6.2 31-34.4 6.4 7 24.4 26.8 31.4 34.4h116c19.6 0 36-3.8 48.6-11.2v11.2c108.6 0 128.6 2.8 151.4-10.2v10.2h156.4v-10.4c22.8 13.8 39.2 10.4 129.8 10.4v-10c20.6 11.8 33.2 10.4 108.6 10v350.8c0 53-43 96-96 96h-960c-53 0-96-43-96-96v-219.6c18.8 43.8 39.4 92 46.2 107.8h79.4c8.6-20.2 3.2-7.4 18-42.2v42.2h92c5.8-12.4 22.2-48 27.8-60 11.6 27.2 20.2 47.8 25.2 60h206c0 0.2 23 0 23.2 0 87.4-0.4 107.2 1.6 128.8-10.6v10.6h79.8v-18.6c15.2 12.2 35.8 18.6 61.4 18.6h55.2c0-1 3.8-0.6 4.6-0.6h64.8c8.4-19.6 5.2-12 17.6-41.2v41.2h86.6c9.8-16-2 3.6 22.4-36.8v36.8h79.8v-184h-83.2c-10.8 18-2.8 4.4-26.4 43.8v-43.8h-105.6c-12.8 29.6-0.2 0.6-13.2 30.6h-38c-8.4-20-4.4-10.4-12.8-30.6h-53.6c-24.6 0-44.6 6-59.4 17.8v-17.8h-133c-0.6 27.8-0.2 49.6-0.2 49.6-3.6 0.6-6.8 0.4-19.6 0.4v-50.2h-271v22.8c-5-11.2-5.4-11.8-10.2-22.8h-59c-8 17.8-5.8 12.8-10.2 22.8v-22.8h-105.8c-8.4 20.2-4.4 10.6-12.8 30.6h-38.4c-8.4-20-4.4-10.4-12.8-30.6h-53.2v-407.4c0-53 43-96 96-96h960.2c53 0 96 43 96 96v180.8c-25.4-16.6-65.4-12.2-135-12.2zM1089.8 393.6h60.2v29.2h-65.8c-25.6 0-47.6-13.2-47.6-41.4 0-66 85.4-25.6 85.4-54.8 0-10.2-8.6-12.8-16.8-12.8h-64l-0.2-29.6h64c16.8 0 35.2 3.6 45 17.8v51.6c-21 27.6-78.6 2.6-78.6 27 0 11.6 9.2 13 18.4 13zM975.8 314h-64.4l-0.2-29.6h64.4c29.6 0 52.4 11.2 52.4 44 0 66.4-85.8 22.4-85.8 52.6 0 11.2 9.8 12.8 18.4 12.8h60.8v29.2h-66.4c-25.6 0-47-13.2-47-41.4 0-66 85.4-25 85.4-54.8-0.2-10.8-9.4-12.8-17.6-12.8zM891.4 394.2v28.6h-110.4l-0.2-138.6h110.4l0.2 28.6-77.2 0.6v27.6h75.8v28.2h-75.6v25zM778.8 610.4c-0.6-0.4-2.8-4.4-2.8-15.2 0-12 1.8-15.4 2.2-15.8 0.4-0.2 2.2-1 6.8-1l14.6 33.8c-2.2 0-4.2 0.2-6.2 0.2-11.2 0-14-1.4-14.6-2zM819.6 631.4h-0.2zM787.2 661.8c-47 0-68-24-68-70.6 0-44.4 20.4-68 66-68h38.4l12.8 30.6h68.6l13.2-30.6h67.4v103.8l62.4-103.8h47.2v138h-33.8v-96.2l-58.2 96.2h-50.6v-130.8l-55.8 130.8h-49.6l-47-109h-14.8c-26.6 0-32.2 16.2-32.2 39.8 0 47.6 31.4 40 66.2 39.4v30.4zM871.4 637.6l22.4-55.2h-45.6zM669.2 661.6v-138.6h33.8v138.6z" />
<glyph unicode="&#xe936;" glyph-name="cc-apple-pay" horiz-adv-x="1152" d="M604.4 523.2c0-34.4-21-54.2-58-54.2h-48.6v108.4h48.8c36.8 0 57.8-19.6 57.8-54.2zM699.4 398c0-16.6 14.4-27.4 37-27.4 28.8 0 50.4 18.2 50.4 43.8v15.4l-47-3c-26.6-1.8-40.4-11.6-40.4-28.8zM1152 802v-704c0-53-43-96-96-96h-960c-53 0-96 43-96 96v704c0 53 43 96 96 96h960c53 0 96-43 96-96zM255.6 565.6c16.8-1.4 33.6 8.4 44.2 20.8 10.4 12.8 17.2 30 15.4 47.4-14.8-0.6-33.2-9.8-43.8-22.6-9.6-11-17.8-28.8-15.8-45.6zM376.8 416.6c-0.4 0.4-39.2 15.2-39.6 60-0.4 37.4 30.6 55.4 32 56.4-17.6 26-44.8 28.8-54.2 29.4-24.4 1.4-45.2-13.8-56.8-13.8-11.8 0-29.4 13.2-48.6 12.8-25-0.4-48.4-14.6-61-37.2-26.2-45.2-6.8-112 18.6-148.8 12.4-18.2 27.4-38.2 47-37.4 18.6 0.8 26 12 48.4 12 22.6 0 29-12 48.6-11.8 20.4 0.4 33 18.2 45.6 36.4 13.8 20.8 19.6 40.8 20 42zM647.6 523.4c0 53.2-37 89.6-89.8 89.6h-102.4v-272.8h42.4v93.2h58.6c53.6 0 91.2 36.8 91.2 90zM827.6 476c0 39.4-31.6 64.8-80 64.8-45 0-78.2-25.8-79.4-61h38.2c3.2 16.8 18.8 27.8 40 27.8 26 0 40.4-12 40.4-34.4v-15l-52.8-3.2c-49.2-3-75.8-23.2-75.8-58.2 0-35.4 27.4-58.8 66.8-58.8 26.6 0 51.2 13.4 62.4 34.8h0.8v-32.8h39.2v136zM1032 538.2h-43l-49.8-161.2h-0.8l-49.8 161.2h-44.6l71.8-198.6-3.8-12c-6.4-20.4-17-28.4-35.8-28.4-3.4 0-9.8 0.4-12.4 0.6v-32.8c2.4-0.8 13-1 16.2-1 41.4 0 60.8 15.8 77.8 63.6l74.2 208.6z" />
<glyph unicode="&#xe937;" glyph-name="cc-diners-club" horiz-adv-x="1152" d="M479.4 800.2c-193.8 0-351.6-157.2-351.6-351.6 0-193.8 157.8-351.6 351.6-351.6 194.4 0 351.6 157.8 351.6 351.6 0 194.4-157.2 351.6-351.6 351.6zM399.6 241c-83.4 31.8-142.8 112.8-142.8 207.6s59.4 175.8 142.8 208.2v-415.8zM559.2 240.4v416.4c83.4-32.4 142.8-113.4 142.8-208.2s-59.4-175.8-142.8-208.2zM1056 896h-960c-53 0-96-43-96-96v-704c0-53 43-96 96-96h960c53 0 96 43 96 96v704c0 53-43 96-96 96zM659.4 64h-180.6c-212.4 0-387.6 171-387.6 380.4 0 229.2 175.2 387.6 387.6 387.6h180.6c210 0 401.4-158.4 401.4-387.6 0-209.4-191.4-380.4-401.4-380.4z" />
<glyph unicode="&#xe938;" glyph-name="cc-discover" horiz-adv-x="1152" d="M1040.8 567.8c0 15.8-11 24.2-31.2 24.2h-9.8v-49.8h9.4c20.6 0 31.6 8.8 31.6 25.6zM1056 896h-960c-53 0-96-43-96-96v-704c0-53 43-96 96-96h960c53 0 96 43 96 96v704c0 53-43 96-96 96zM967.8 618.2c45.2 0 105.8 8.2 105.8-48.8 0-25.2-13.2-41.4-37.4-46.4l51.6-68.8h-39.2l-44.4 65.6h-4.4v-65.6h-32zM856 618h90.6v-28h-58.6v-36.4h56.6v-27.6h-56.6v-44.4h58.6v-27.6h-90.6zM718.6 618l43.8-110.4 44.4 110.4h35l-71-168.4h-17.2l-70 168.4zM606.8 624c49.4 0 89.2-40 89.2-89.2 0-49.4-40-89.2-89.2-89.2-49.4 0-89.2 40-89.2 89.2 0 49.4 40 89.2 89.2 89.2zM508.2 611.8v-38c-40.2 40.2-93.6 9.4-93.6-38 0-50 55-77 93.6-38.4v-38c-59.4-28.6-126.6 11.4-126.6 76.4 0 62.4 66.2 106 126.6 76zM313.8 479.2c22.8 0 44.8 30.6-6.6 48.8-30 11-40.4 22.8-40.4 45.4 0 46.4 61.2 62.8 99.4 28.6l-16.8-21.6c-20.8 23.2-49.8 12.4-49.8-5 0-8.8 5.4-13.8 24.6-20.6 36.4-13.2 47.2-25 47.2-51.2 0-59-77.6-74.8-113.2-22.6l20.6 19.8c7.4-14.2 19.8-21.6 35-21.6zM110.8 454h-46.8v164h46.8c52.2 0 88.2-34 88.2-82.2 0-37-26.4-81.8-88.2-81.8zM245.8 454h-32v164h32zM1088 94c0-16.4-13.6-30-30-30h-802c379.2 71.2 765.4 278.4 832 320zM148.2 576.8c-10.4 9.8-23.2 13.2-43.8 13.2h-8.4v-108.4h8.4c20.6 0 34 4 43.8 12.8 11.4 10.4 17.8 25.6 17.8 41.4s-6.4 31-17.8 41z" />
<glyph unicode="&#xe939;" glyph-name="cc-jcb" horiz-adv-x="1152" d="M863 471.4v64.6c82.4 0 77-0.4 77-0.4 14.6-2.6 26.6-14.6 26.6-32 0-17.6-12-29-26.6-31.6-2.4-0.8-6.6-0.6-77-0.6zM948.6 431c-5.6 1.4-6.6 1-85.6 1v-70c79.2 0 80-0.4 85.6 1 15 3 27 16 27 34 0 17.4-12 31-27 34zM1152 800v-704c0-53-43-96-96-96h-960c-53 0-96 43-96 96v704c0 53 43 96 96 96h960c53 0 96-43 96-96zM364 575.4h-114c0-134.2 21.4-219.4-71.6-219.4-39 0-77.6 11.4-114.4 29.6v-56c60-16.6 136-16.6 136-16.6 195.8 0 164 95.4 164 262.4zM721 566.4c-126.8 32-330 29.8-330-118.6 0-154.2 216.4-147.2 330-118.4v56.6c-95.2-49.4-215-44-215 62s119.6 111.2 215 62.4v56zM1088 387c0 37-33 61-76 64v1.6c39 5.4 60.6 31 60.6 60.4 0 38-31.4 60-74 62 0 0 12.6 0.6-240.6 0.6v-255h245.4c48.6-0.2 84.6 25.8 84.6 66.4z" />
<glyph unicode="&#xe93a;" glyph-name="cc-mastercard" horiz-adv-x="1152" d="M965.8 139.4c0-13.6-9.2-23.4-22.4-23.4-13.6 0-22.4 10.4-22.4 23.4s8.8 23.4 22.4 23.4c13.2 0 22.4-10.4 22.4-23.4zM344.2 162.8c-14.2 0-22.4-10.4-22.4-23.4s8.2-23.4 22.4-23.4c13 0 21.8 9.8 21.8 23.4-0.2 13-8.8 23.4-21.8 23.4zM579.2 163.4c-10.8 0-17.4-7-19-17.4h38.2c-1.8 11.4-8.8 17.4-19.2 17.4zM794.8 162.8c-13.6 0-21.8-10.4-21.8-23.4s8.2-23.4 21.8-23.4c13.6 0 22.4 9.8 22.4 23.4 0 13-8.8 23.4-22.4 23.4zM1006.6 110.6c0-0.6 0.6-1 0.6-2.2 0-0.6-0.6-1-0.6-2.2-0.6-0.6-0.6-1-1-1.6-0.6-0.6-1-1-2.2-1-0.6-0.6-1-0.6-2.2-0.6-0.6 0-1 0-2.2 0.6-0.6 0-1 0.6-1.6 1-0.6 0.6-1 1-1 1.6-0.6 1-0.6 1.6-0.6 2.2 0 1 0 1.6 0.6 2.2 0 1 0.6 1.6 1 2.2 0.6 0.6 1 0.6 1.6 1 1 0.6 1.6 0.6 2.2 0.6 1 0 1.6 0 2.2-0.6 1-0.6 1.6-0.6 2.2-1s0.4-1.2 1-2.2zM1002.2 107.8c1 0 1 0.6 1.6 0.6 0.6 0.6 0.6 1 0.6 1.6s0 1-0.6 1.6c-0.6 0-1 0.6-2.2 0.6h-3.2v-7h1.6v2.8h0.6l2.2-2.8h1.6l-2.2 2.6zM1152 798v-704c0-53-43-96-96-96h-960c-53 0-96 43-96 96v704c0 53 43 96 96 96h960c53 0 96-43 96-96zM128 518.8c0-153 124.2-277 277-277 54.4 0 107.8 16.4 153 46.2-145.8 118.6-144.8 342.4 0 461-45.2 30-98.6 46.2-153 46.2-152.8 0.2-277-124-277-276.4zM576 301.2c141 110 140.4 324.4 0 435-140.4-110.6-141-325.2 0-435zM291.4 148.6c0 17.4-11.4 28.8-29.4 29.4-9.2 0-19-2.8-25.6-13-4.8 8.2-13 13-24.4 13-7.6 0-15.2-2.8-21.2-10.8v8.8h-16.4v-73.4h16.4c0 37.8-5 60.4 18 60.4 20.4 0 16.4-20.4 16.4-60.4h15.8c0 36.6-5 60.4 18 60.4 20.4 0 16.4-20 16.4-60.4h16.4v46zM381.2 176h-15.8v-8.8c-5.4 6.6-13 10.8-23.4 10.8-20.6 0-36.4-16.4-36.4-38.6 0-22.4 15.8-38.6 36.4-38.6 10.4 0 18 3.8 23.4 10.8v-9.2h15.8v73.6zM462.2 124.8c0 30-45.8 16.4-45.8 30.4 0 11.4 23.8 9.6 37 2.2l6.6 13c-18.8 12.2-60.4 12-60.4-16.4 0-28.6 45.8-16.6 45.8-30 0-12.6-27-11.6-41.4-1.6l-7-12.6c22.4-15.2 65.2-12 65.2 15zM533 106.2l-4.4 13.6c-7.6-4.2-24.4-8.8-24.4 8.2v33.2h26.2v14.8h-26.2v22.4h-16.4v-22.4h-15.2v-14.6h15.2v-33.4c0-35.2 34.6-28.8 45.2-21.8zM559.6 133h55c0 32.4-14.8 45.2-34.8 45.2-21.2 0-36.4-15.8-36.4-38.6 0-41 45.2-47.8 67.6-28.4l-7.6 12c-15.6-12.8-39.2-11.6-43.8 9.8zM677.8 176c-9.2 4-23.2 3.6-30.4-8.8v8.8h-16.4v-73.4h16.4v41.4c0 23.2 19 20.2 25.6 16.8l4.8 15.2zM699 139.4c0 22.8 23.2 30.2 41.4 16.8l7.6 13c-23.2 18.2-65.4 8.2-65.4-30 0-39.6 44.8-47.6 65.4-30l-7.6 13c-18.4-13-41.4-5.2-41.4 17.2zM832.4 176h-16.4v-8.8c-16.6 22-59.8 9.6-59.8-27.8 0-38.4 44.8-49.4 59.8-27.8v-9.2h16.4v73.6zM899.8 176c-4.8 2.4-22 5.8-30.4-8.8v8.8h-15.8v-73.4h15.8v41.4c0 22 18 20.6 25.6 16.8l4.8 15.2zM980.4 205.8h-15.8v-38.6c-16.4 21.8-59.8 10.2-59.8-27.8 0-38.8 45-49.2 59.8-27.8v-9.2h15.8v103.4zM995.6 356v-9.2h1.6v9.2h3.8v1.6h-9.2v-1.6h3.8zM1008.8 108.4c0 1 0 2.2-0.6 3.2-0.6 0.6-1 1.6-1.6 2.2s-1.6 1-2.2 1.6c-1 0-2.2 0.6-3.2 0.6-0.6 0-1.6-0.6-2.8-0.6-1-0.6-1.6-1-2.2-1.6-1-0.6-1.6-1.6-1.6-2.2-0.6-1-0.6-2.2-0.6-3.2 0-0.6 0-1.6 0.6-2.8 0-0.6 0.6-1.6 1.6-2.2 0.6-0.6 1-1 2.2-1.6 1-0.6 2.2-0.6 2.8-0.6 1 0 2.2 0 3.2 0.6 0.6 0.6 1.6 1 2.2 1.6s1 1.6 1.6 2.2c0.6 1.2 0.6 2.2 0.6 2.8zM1015.2 357.8h-2.8l-3.2-7-3.2 7h-2.8v-10.8h1.6v8.2l3.2-7h2.2l2.8 7v-8.2h2.2v10.8zM1024 518.8c0 152.4-124.2 276.6-277 276.6-54.4 0-107.8-16.4-153-46.2 144.2-118.6 146.4-343 0-461 45.2-30 99-46.2 153-46.2 152.8-0.2 277 123.8 277 276.8z" />
<glyph unicode="&#xe93b;" glyph-name="cc-paypal" horiz-adv-x="1152" d="M372.6 443.6c0-24.4-19.4-43-44-43-18.4 0-32 10.4-32 30 0 24.4 19 44 43.4 44 18.6 0 32.6-11.4 32.6-31zM161 540.6h-9.4c-3 0-6-2-6.4-5.4l-8.6-53.4 16.4 0.6c22 0 39 3 43 28.4 4.6 26.8-12.4 29.8-35 29.8zM729 540.6h-9c-3.6 0-6-2-6.4-5.4l-8.4-53.4 16 0.6c26 0 44 6 44 36-0.2 21.2-19.2 22.2-36.2 22.2zM1152 800v-704c0-53-43-96-96-96h-960c-53 0-96 43-96 96v704c0 53 43 96 96 96h960c53 0 96-43 96-96zM256.6 529.2c0 42-32.4 56-69.4 56h-80c-5 0-10-4-10.4-9.4l-32.8-204.2c-0.6-4 2.4-8 6.4-8h38c5.4 0 10.4 5.8 11 11.4l9 53.2c2 14.4 26.4 9.4 36 9.4 57.2 0 92.2 34 92.2 91.6zM425 511.6h-38c-7.6 0-8-11-8.4-16.4-11.6 17-28.4 20-47.4 20-49 0-86.4-43-86.4-90.4 0-39 24.4-64.4 63.4-64.4 18 0 40.4 9.8 53 23.8-1-3-2-9.4-2-12.4 0-4.6 2-8 6.4-8h34.4c5.4 0 10 5.8 11 11.4l20.4 128.6c0.6 3.8-2.4 7.8-6.4 7.8zM506 315.8l127.4 185.2c1 1 1 2 1 3.4 0 3.4-3 7-6.4 7h-38.4c-3.4 0-7-2-9-5l-53-78-22 75c-1.6 4.4-6 8-11 8h-37.4c-3.4 0-6.4-3.6-6.4-7 0-2.4 39-113.6 42.4-124.2-5.4-7.6-41-57.2-41-63.2 0-3.6 3-6.4 6.4-6.4h38.4c3.6 0.2 7 2.2 9 5.2zM824.6 529.2c0 42-32.4 56-69.4 56h-79.4c-5.4 0-10.4-4-11-9.4l-32.4-204c-0.4-4 2.6-8 6.4-8h41c4 0 7 3 8 6.4l9 58c2 14.4 26.4 9.4 36 9.4 56.8 0 91.8 34 91.8 91.6zM993 511.6h-38c-7.6 0-8-11-8.6-16.4-11 17-28 20-47.4 20-49 0-86.4-43-86.4-90.4 0-39 24.4-64.4 63.4-64.4 18.6 0 41 9.8 53 23.8-0.6-3-2-9.4-2-12.4 0-4.6 2-8 6.4-8h34.6c5.4 0 10 5.8 11 11.4l20.4 128.6c0.6 3.8-2.4 7.8-6.4 7.8zM1088 578.2c0 4-3 7-6.4 7h-37c-3 0-6-2.4-6.4-5.4l-32.4-208-0.6-1c0-3.6 3-7 7-7h33c5 0 10 5.8 10.4 11.4l32.4 202.4v0.6zM908 474.6c-24.4 0-43.4-19.4-43.4-44 0-19.4 14-30 32.4-30 24 0 43.4 18.4 43.4 43 0.2 19.6-13.8 31-32.4 31z" />
<glyph unicode="&#xe93c;" glyph-name="cc-stripe" horiz-adv-x="1152" d="M984.8 518.4c-17.8 0-37.4-13.4-37.4-45.4h73.4c0 32-18.6 45.4-36 45.4zM750 513.2c-16.4 0-26.6-5.8-34-14l0.4-105.6c7-7.4 17-13.4 33.6-13.4 26.2 0 43.8 28.6 43.8 66.8 0 37.2-18 66.4-43.8 66.2zM1056 896h-960c-53 0-96-43-96-96v-704c0-53 43-96 96-96h960c53 0 96 43 96 96v704c0 53-43 96-96 96zM244.4 397.8c0-51.2-40.6-80.2-99.8-80.6-24.4 0-51.2 4.8-77.6 16.2v67.8c24-12.8 54.2-22.6 77.8-22.6 15.8 0 27.2 4.2 27.2 17.4 0 34-108 21.2-108 99.8 0 50.4 38.4 80.4 96 80.4 23.6 0 47-3.6 70.6-13v-66.8c-21.6 11.6-49 18.2-70.6 18.2-15 0-24.2-4.4-24.2-15.4 0-32 108.6-16.8 108.6-101.4zM382 511h-54v-101c0-41.8 45-28.8 54-25.2v-57.8c-9.4-5.2-26.6-9.4-49.8-9.4-42.2 0-73.8 31-73.8 73l0.4 227.8 69.4 14.8v-61.6h53.8zM530 506.2c-9 3-37.4 7.2-54.2-14.8v-168.8h-71v249h61.4l4.4-21c16.6 30.6 49.8 24.4 59.2 21h0.2zM618.2 322.6h-71.4v249h71.4zM618.2 608.4l-71.4-15.2v57.8l71.4 15.2zM766.4 317.4c-24.8 0-40 10.6-50.2 18l-0.2-80.4-71-15v331.6h62.6l3.6-17.6c9.8 9 27.8 22.2 55.6 22.2 49.8 0 96.8-45 96.8-127.6 0-90.2-46.4-131-97.2-131.2zM1087.2 420.4h-139c3.2-33.2 27.6-43 55.2-43 28.2 0 50.4 6 69.8 15.8v-57.2c-19.4-10.6-44.8-18.4-78.8-18.4-69.2 0-117.6 43.4-117.6 129 0 72.4 41 129.8 108.6 129.8 67.4 0 102.6-57.4 102.6-130.2 0-7-0.6-21.8-0.8-25.8z" />
<glyph unicode="&#xe93d;" glyph-name="cc-visa" horiz-adv-x="1152" d="M940.2 497.4s15.2-74.4 18.6-90h-66.8c6.6 17.8 32 87 32 87-0.4-0.6 6.6 18.2 10.6 29.8l5.6-26.8zM1152 800v-704c0-53-43-96-96-96h-960c-53 0-96 43-96 96v704c0 53 43 96 96 96h960c53 0 96-43 96-96zM305 297.6l126.4 310.4h-85l-78.6-212-8.6 43-28 142.8c-4.6 19.8-18.8 25.4-36.4 26.2h-129.4l-1.4-6.2c31.6-8 59.8-19.6 84.4-34.2l71.6-270h85zM493.8 297.2l50.4 310.8h-80.4l-50.2-310.8h80.2zM773.6 398.8c0.4 35.4-21.2 62.4-67.4 84.6-28.2 14.2-45.4 23.8-45.4 38.4 0.4 13.2 14.6 26.8 46.2 26.8 26.2 0.6 45.4-5.6 59.8-11.8l7.2-3.4 11 67.2c-15.8 6.2-41 13.2-72 13.2-79.4 0-135.2-42.4-135.6-102.8-0.6-44.6 40-69.4 70.4-84.4 31-15.2 41.6-25.2 41.6-38.6-0.4-20.8-25.2-30.4-48.2-30.4-32 0-49.2 5-75.4 16.6l-10.6 5-11.2-69.8c18.8-8.6 53.6-16.2 89.6-16.6 84.4-0.2 139.4 41.6 140 106zM1056 297.2l-64.8 310.8h-62.2c-19.2 0-33.8-5.6-42-25.8l-119.4-285h84.4s13.8 38.4 16.8 46.6h103.2c2.4-11 9.6-46.6 9.6-46.6h74.4z" />
<glyph unicode="&#xe93e;" glyph-name="centercode" d="M658.4 422.8c-7.6-70.4-70.8-121.2-141.2-113.6s-121.2 70.8-113.6 141.2c7.6 70.4 70.8 121.2 141.2 113.6 70.2-7.6 121.2-70.8 113.6-141.2zM486.8-47.4c-293.4 15.4-503.2 276.4-466.6 558.8 22.4 173.2 131.6 313.8 278.2 384 322 154.2 699.4-74.8 709.4-433.2 8.2-294-236.8-524.4-521-509.6zM846.6 312.6c55.8 236-321 411.8-474.4 468.4-115-112.6-138.2-377.2-67.6-688.8 137.6-31.6 338.2 52.8 542 220.4z" />
<glyph unicode="&#xe93f;" glyph-name="centos" horiz-adv-x="896" d="M579.2 765l63.2-63.4-152.6-153v216.4zM254.4 701.6l152.6-153v216.4h-89.4zM337.4 784.8h89.4v-255.8l21.6-21.6 21.6 21.6v255.8h89.4l-111 111.2zM389.8 448.6l-21.6 21.6h-257.2v89.6l-111-111.2 111-111.2v89.6h257.2l21.6 21.6zM548.4 490h215.8v89.6l-63.2 63.4zM895 448.6l-111 111.2v-89.6h-255.4l-21.6-21.6 21.6-21.6h255.4v-89.6l111 111.2zM130.8 607.6l65 63.4 180.6-181h30.6v30.6l-180.6 181 63.2 63.4h-158.8zM764.2 765h-157l63.2-63.4-180.6-181v-30.6h30.6l180.6 181 63.2-63.4zM407 132.2v216.2l-152.6-153 63.2-63.4h89.4zM130.8 490h217.6l-152.6 153-65-63.4zM764.2 289.6l-63.2-63.4-180.6 181h-30.6v-30.6l180.6-181-63.2-63.4h157zM764.2 407.2h-215.8l152.6-153 63.2 63.4zM642.4 195.6l-152.6 153v-216.2h89.4zM195.8 254.2l152.6 153h-217.6v-89.6zM559.4 112.4h-89.4v255.8l-21.6 21.6-21.6-21.6v-255.8h-89.4l111-111.2zM226.4 195.6l180.6 181v30.6h-30.6l-180.6-181-65 63.4v-157.4h158.8z" />
<glyph unicode="&#xe940;" glyph-name="chrome" horiz-adv-x="992" d="M263 525l-152.8 234.8c95.2 118.4 238 183.6 384 184.2 84.6 0.6 171-21 249.6-66.4 86.8-50.4 152.8-122.8 194.8-206l-410.6 21.6c-116.2 6.8-226.8-58.6-265-168.2zM328.8 448c0-92.4 74.8-167.2 167.2-167.2s167.2 74.8 167.2 167.2-74.8 167.2-167.2 167.2-167.2-74.6-167.2-167.2zM958.6 626.4l-279.4-14.4c75.8-88.6 77-216.4 13.2-314.4l-224.2-344.8c93-5 188.8 15.4 275.6 65.8 214.8 124 301.8 384 214.8 607.8zM267.4 352.8l-186.6 367c-51-78-80.8-171.6-80.8-271.8 0-248 181.6-453.4 419-489.8l127.4 249.6c-115.2-21.6-226.4 41.6-279 145z" />
<glyph unicode="&#xe941;" glyph-name="chromecast" d="M895.66 832h-767.66c-47.187 0-85.44-38.253-85.44-85.44v0-127.84h85.44v127.84h767.66v-597.12h-298.38v-85.44h298.72c47.187 0 85.44 38.253 85.44 85.44v0 597.12c0 47.187-38.253 85.44-85.44 85.44v0zM42.56 192.84v-127.84h127.82c0 0.006 0 0.013 0 0.020 0 70.593-57.227 127.82-127.82 127.82v0zM42.56 363.4v-85.4c0.006 0 0.013 0 0.020 0 117.78 0 213.26-95.48 213.26-213.26 0-0.021 0-0.042 0-0.063v0.003-0.68h85.44c0 0.101 0 0.221 0 0.34 0 164.657-133.373 298.164-297.98 298.38h-0.681zM42.56 533.94v-85.44c212 0.2 384-171.5 384.16-383.5v-1h85.44c-0.92 258.92-210.68 468.54-469.6 469.28z" />
<glyph unicode="&#xe942;" glyph-name="cloudscale" horiz-adv-x="896" d="M636.2 652l-18.8-15.2c-45 38.6-103 67.2-166.6 67.2-143.2 0-258.8-121.6-258.8-264.6 0-13.2 0.8-26.2 2.8-38.8-4 112 83.6 194.8 185.2 194.8 48.4 0 92.4-18.8 125.2-49.4l-50.4-40.8c-16.6 1.8-33.6-3.6-46.2-16.2-22.2-22-22.2-57.8 0-80 22.2-22 57.8-22 80 0 12.6 12.6 18 29.8 16.2 46.2l150.4 177.6c12.6 13-6.6 31.8-19 19.2zM468.6 429c-11.2-11-29.2-11-40.4 0-11.2 11.2-11.2 29.2 0 40.4s29.2 11.2 40.4 0 11.2-29.4 0-40.4zM448 896c-247 0-448-201-448-448s201-448 448-448 448 201 448 448-201 448-448 448zM448 128c-176.4 0-320 143.6-320 320s143.6 320 320 320 320-143.6 320-320-143.6-320-320-320z" />
<glyph unicode="&#xe943;" glyph-name="cloudsmith" horiz-adv-x="664" d="M665 120.2c0-92.8-75.2-168.2-168-168.2s-168 75.4-168 168.2 75.2 168 168 168 168-75.2 168-168zM497 608c92.8 0 160 75.2 160 168s-67.2 168-160 168-176-75.2-176-168-59.2-152-152-152-168-83.2-168-176 75.2-160 168-160 168 67.2 168 160 67.2 160 160 160z" />
<glyph unicode="&#xe944;" glyph-name="cloudversify" horiz-adv-x="1232" d="M297.2 352c16.4-137 134.8-231 292-222.6 102.4-86.6 273.6-91.6 372.8 11.2 138.4-2.2 237 89.2 263 199 29.6 125-36.4 265-184.2 310.2-66 176.2-262.8 203-373 170-114.6-34.6-168.6-106.4-198.6-219.4-15.6-5.4-53-17.8-90-48.2 23.4 0 30.4-17.8 30.4-39v-40.8c0-21.4-17.4-39-39-39h-40.4c-21.4 0-39 12-39 33.4v13.2h-93.6c-7.6 0-21.6-8.6-21.6-23.8v-80.8c0-12.8 10.6-23.6 23.4-23.6h97.8zM752 336c-21.4-92.6 43.4-144.8 110.6-173.6-214.4-67.6-343.2 101.6-270.6 221.6-66.4-43.2-67.4-142.4-58.4-185.8-35.8 24.8-107.6 64.8-114.8 159.6-6 79.8 43 151.4 114 187.8 61.2 31.6 207 17 267.2-81.6-28.2 96-107.6 140.2-203.6 149.6 61.8 61.4 128.8 100.6 228.4 87.4 139.6-18.6 266.4-165.6 135.4-301 70 32.6 97.4 108.8 95 153.8l21-39.2c23.6-44 30.4-95.2 18.8-144-18.4-78-81.2-137.6-159.4-153-64.2-12.6-166.2 10.2-183.6 118.4zM256 544h-79.6c-17.8 0-32.4 14.6-32.4 32.4v79.2c0 17.8 14.6 32.4 32.4 32.4h79.6c17.8 0 32.4-14.6 32.4-32.4v-79.2c0-17.8-14.6-32.4-32.4-32.4zM20.2 624c-11.2 0-20.2 9-20.2 20.2v55.6c0 11.2 9 20.2 20.2 20.2h55.4c11 0 20.2-9 20.2-20.2v-55.6c0-11.2-9-20.2-20.2-20.2h-55.4zM336 674.6v42.8c0 10.2 8.4 18.6 18.6 18.6h42.8c10.2 0 18.6-8.4 18.6-18.6v-42.8c0-10.2-8.4-18.6-18.6-18.6h-42.8c-10.2 0-18.6 8.4-18.6 18.6zM112 489v-50c0-12.6-10.2-23-22.8-23h-50.4c-12.6 0-22.8 10.4-22.8 23v50c0 12.6 10.2 23 22.8 23h50.2c12.8 0 23-10.4 23-23z" />
<glyph unicode="&#xe945;" glyph-name="codepen" d="M1004.57 640.592l-468 312c-15.974 9.83-33.022 9.92-49.142 0l-468-312c-12-7.998-19.428-22.286-19.428-36.57v-311.998c0-14.286 7.428-28.572 19.43-36.572l468-312.044c15.974-9.83 33.022-9.92 49.142 0l468 312.044c12 7.998 19.43 22.286 19.43 36.572v311.998c-0.002 14.284-7.43 28.572-19.432 36.57zM556 833.738l344.572-229.716-153.714-102.858-190.858 127.43v205.144zM468 833.738v-205.144l-190.858-127.43-153.714 102.858 344.572 229.716zM88 521.736l110.286-73.714-110.286-73.714v147.428zM468 62.306l-344.572 229.716 153.714 102.858 190.858-127.43v-205.144zM512 344.022l-155.43 104 155.43 104 155.43-104-155.43-104zM556 62.306v205.144l190.858 127.43 153.714-102.858-344.572-229.716zM936 374.308l-110.286 73.714 110.286 73.714v-147.428z" />
<glyph unicode="&#xe946;" glyph-name="codiepie" horiz-adv-x="944" d="M845 554.2c61.4 0 67-106.2-0.6-106.2h-21.6v-88.6h-53.2v194.8h75.4zM944 254.8c-84.2-183.8-243.2-302.8-448-302.8-274 0-496 222-496 496s222 496 496 496c194.8 0 345.6-107.4 436.4-276.8l-372-217.6 383.6-194.8zM867 229.8l-120.6 61.4c-54.2-88.6-140.8-142.8-244.8-142.8-165 0-298.4 133.4-298.4 297.8 0 165 133.4 298.4 298.4 298.4 96.8 0 177.8-47 233.8-126.8l119 69.2c-81.4 125.2-209.4 200-358.4 200-242.4 0-439-196.6-439-439s196.6-439 439-439c157.2 0 293 84.2 371 220.8z" />
<glyph unicode="&#xe947;" glyph-name="confluence" d="M4.6 135.6c-9-15.2-4.2-35 11-44.4l211.8-130.4c15.4-9.4 35.4-4.8 44.8 10.6 0 0.2 0.2 0.4 0.2 0.4 134.2 224.4 161 191.8 561.8 1.4 16.2-7.8 35.6-0.8 43.4 15.4 0.2 0.2 0.2 0.6 0.4 0.8l100.8 228.2c7.2 16.2-0.2 35.2-16.2 42.6-44.4 20.8-132.4 62.4-211.8 100.6-495.8 241.2-661.6-91.4-746.2-225.2zM1019.4 759.8c9 15.2 4.2 35-11 44.4l-211.6 130.2c-15 10-35.2 6.2-45.2-8.8-0.4-0.6-0.8-1.2-1.2-2-134.6-225.2-162.2-191.2-561.2-1.8-16.2 7.8-35.6 0.8-43.4-15.4-0.2-0.2-0.2-0.6-0.4-0.8l-101-228.2c-7.2-16.2 0.2-35.2 16.2-42.6 44.4-20.8 132.6-62.4 212-100.8 496-240 661.6 90.8 746.8 225.8z" />
<glyph unicode="&#xe948;" glyph-name="connectdevelop" horiz-adv-x="1152" d="M1101 478l-100.178 173.572c2.142 4.284 3.75 9.106 3.75 14.464 0 16.072-13.392 29.466-29.464 30.002l-110.894 191.786c1.072 3.214 2.142 6.428 2.142 9.642 0 17.142-13.928 30.536-30.536 30.536-9.642 0-17.678-4.286-23.572-11.25h-213.212c-5.358 6.962-13.394 11.248-23.036 11.248s-17.678-4.286-23.036-11.25h-212.142c-5.894 6.964-13.928 11.25-23.572 11.25-16.606 0-30.536-13.392-30.536-30.536 0-3.214 1.072-6.964 2.144-9.642l-111.966-194.466c-10.712-4.82-18.214-15-18.214-27.322 0-1.070 0.536-2.142 0.536-3.214l-106.608-184.286c-14.464-2.678-25.18-15-25.18-30 0-14.464 10.178-26.786 24.108-30l110.358-190.716c-1.072-3.214-1.608-5.892-1.608-9.642 0-14.464 10.178-26.786 24.108-29.464l103.394-179.464c-1.072-3.214-2.142-6.964-2.142-10.714 0-17.142 13.928-30.536 30.536-30.536 9.642 0 17.678 4.286 23.036 10.714h213.75c5.356-6.426 13.928-10.712 23.034-10.712s17.678 4.286 23.036 10.714h214.286c5.356-5.892 13.392-9.642 21.964-9.642 17.142 0 30.536 13.928 30.536 30.536 0 3.214-0.534 5.892-1.606 8.57l103.394 180.536c13.928 2.678 24.108 15 24.108 29.464 0 3.214-0.536 6.428-1.608 9.642l109.822 190.716c13.928 2.678 24.644 15 24.644 30-0.004 14.464-10.184 26.786-23.576 29.464zM307.070 58.536l-87.32 151.606h87.32v-151.606zM307.070 226.214h-87.32c-0.536 2.142-1.608 4.284-2.678 6.428l89.998 94.82v-101.248zM307.070 351.036l-100.714-106.608c-2.678 1.072-5.358 2.68-8.036 3.214l-111.426 192.858c1.070 2.678 1.070 5.358 1.070 8.036s0 4.82-0.536 6.964l103.93 180c5.358 0.536 10.714 2.144 15.536 5.358l100.178-103.93v-185.892zM307.070 555.68l-91.606 94.82c2.678 4.286 4.286 9.642 4.286 15.534 0 0.536-0.536 1.608-0.536 2.144l87.856 31.608v-144.106zM307.070 716.93l-87.32-31.608 87.32 151.072v-119.464zM960.108 638.714l1.608-2.678-70.716-334.286-127.5 134.464 196.072 203.036 0.536-0.536zM583.5 249.786l23.036-23.572h-45.536l22.5 23.572zM582.964 272.286l-166.606 170.892 159.106 168.75 166.072-175.178-158.572-164.464zM593.678 260.5l158.572 164.464 135-142.5-11.784-56.25h-248.038l-33.75 34.286zM820.822 871.214c2.142-1.072 4.284-2.144 6.964-2.68l115.714-201.428v-1.072c0-5.892 1.606-11.248 4.286-15.534l-195-202.5-166.070 175.178 234.106 248.036zM802.608 875.5l-227.144-240.536-114.108 120.536 332.678 120h8.574zM555.642 875.5c5.356-5.356 12.32-8.57 20.358-8.57s15 3.214 20.358 8.57h150l-296.786-107.142-101.786 107.142h207.856zM323.144 864.25l2.142 4.284c2.289 0.582 4.077 1.133 5.831 1.754l-0.473-0.146 102.322-107.68-109.822-39.642v141.43zM323.144 705.678l121.606 43.928 119.464-126.428-159.106-168.214-81.964 84.106v166.608zM323.144 520.322l72.856-75.536-72.856-76.608v152.144zM323.144 344.606l84.106 88.928 165.536-171.964-34.286-35.356h-215.356v118.392zM337.072 20.5c-3.214 3.214-6.964 5.356-11.786 6.964l-2.142 3.214v179.464h199.82l-183.214-189.642h-2.678zM596.894 20.5c-5.358 4.82-12.856 8.57-20.894 8.57s-15.534-3.75-20.894-8.57h-192.858l183.214 189.642h76.608l183.214-189.642h-208.39zM836.894 44.072l-8.572-15c-2.678-0.536-4.82-1.606-6.964-2.678l-178.392 183.75h228.752l-34.824-166.072zM862.606 88.536l25.716 121.606h43.928l-69.644-121.606zM932.25 226.214h-40.714l9.106 42.32 34.286-36.428c-1.070-1.606-2.142-3.748-2.678-5.892zM1064.572 441.036l-110.894-193.394c-2.678-1.070-5.358-2.142-8.036-3.748l-41.25 43.928 69.108 327.856 91.606-158.572c-0.534-2.678-1.606-5.356-1.606-8.57 0-2.678 0.536-4.822 1.072-7.5z" />
<glyph unicode="&#xe949;" glyph-name="contao" d="M90.8 350c28.8-134.2 52.8-258 136.4-350h-159.2c-37.4 0-68 30.4-68 68v760c0 37.4 30.4 68 68 68h115.4c-27.6-25.2-52.2-54.4-73.8-87.2-90.8-140-54-293.6-18.8-458.8zM956 896h-180.4c42.8-42.8 78.4-99 105.4-168.2l-274.2-58.6c-29.8 58-75.6 106.6-165.2 87.8-49.2-10.6-82-38.6-96.6-69.2-17.6-37.4-26.4-79.6 16.4-280.6 42.2-200.4 67.4-235.4 99-262.4 25.8-22.2 66.8-34 116.6-23.4 89 18.8 111.4 81.4 114.8 146.4l274.8 59.2c6.4-143-37.4-250.4-114.8-327.2h104.2c37.4 0 68 30.4 68 68v760.2c0 37.6-30.4 68-68 68z" />
<glyph unicode="&#xe94a;" glyph-name="cotton-bureau" d="M948.62 299.18c-47.32-183.7-188.46-289.18-403.8-296.7v98.32c0 96 52.82 148.78 148.78 148.78 124 0 198.4 74.4 198.4 198.42 0 122.74-73.060 196.56-194.76 198.12-66 138.64-293 129.3-354.48 0-121.72-1.56-194.76-75.38-194.76-198.12 0-124.26 74.54-198.82 198.8-198.82 96 0 149.1-52.46 149.1-148.78v-98.4c-268.86 10-422.2 170.14-422.2 446 0 283.64 162.7 446.4 446.4 446.4 229.54 0 379.68-106.4 429.38-297.62h50.52c-52.24 220.2-223.56 347.22-480.36 347.22-309.64 0-495.64-186.38-495.64-495.64 0-310.64 186.38-497.040 495.64-496.36 256.54 0 427.74 127.62 479.34 347.18zM714 595.34c82.74-6.9 128.4-58 128.4-147.34 0-96-52.86-148.82-148.8-148.82-57.22 0-98.66 19.18-123.18 54.66 166.12 33.1 151.18 199.34 143.58 241.5zM550.64 400.62c-4.92 20.68-32.66 174 112.46 194 4.54-20.18 33.040-174.22-112.52-194zM520 696c57.22 0 98-19.34 122.88-55.22-56.72-10.96-98.72-41.18-123.18-86.9-24.46 45.72-66.46 76-123.2 86.9 24.82 35.38 66.54 54.7 123.14 54.7zM376.96 594.56c146.34-21.14 117.82-173.62 112.98-194-144.82 19.68-118 173.9-112.5 194zM346.4 299.18c-96 0-148.8 52.8-148.8 148.82 0 88.72 45.72 140 128.44 147.34-13.5-74.4-2.76-213.060 143.3-241.5-24.28-35.26-65.68-54.6-122.28-54.6zM452.82 274.4c28.75 15.422 51.727 38.373 66.757 66.242l0.423 0.858c15.54-28.98 38.66-51.080 67.64-67.1-28.845-15.513-51.845-38.673-66.739-66.788l-0.421-0.872c-16 29-38.14 52.46-67.12 67.66z" />
<glyph unicode="&#xe94b;" glyph-name="cpanel" horiz-adv-x="1280" d="M420.6 519.6c-11.2 49.6-53.8 82.4-102 82.4h-74c-14.2 0-25-9-28.6-21.8l-69.8-260.2 49.4 0.2c13.6 0 24.6 9 28.4 21.4l51.6 191.4h39.6c16.8 0 32.4-11.2 36.6-29.6 5-21.8-11.8-45.2-36.6-45.2h-20.6c-14 0-25-9.2-28.6-21.6l-12.8-47.6h64c74.4 0 116.6 72.4 103.4 130.6zM107.6 463.6h37.2c13.8 0 24.8 8.8 28.6 21.8l12.4 47.2h-80c-45.8 0-87.8-28.2-102.4-82.2-17.4-67.6 33.6-130.4 100.6-130.4h24.8l14.2 52.2c2.4 8.8-4.4 16.6-12.8 16.6h-22.6c-49.4 0-49.8 74.8 0 74.8zM602.6 533.2h-155.8l-7-26.8c-4.8-19.2 9-37 28.4-37h115c8 0 4.8-8.6 4.2-10.6l-17.2-63.6c-0.8-2.8-1.8-10.6-11-10.6h-69.8c-10.6 0-10.6 15.8 0 15.8h43.2c13.6 0 24.6 9.2 28.4 21.6l7 26.4h-96.8c-78.4 0-87.2-127.6-1.4-127.6l115-0.4c22.4 0 41.2 14.4 46.8 35.6l28 103.6c9.6 38.4-19.4 73.6-57 73.6zM1266.2 602h-37.8c-9.8 0-18.4-6.4-20.8-15.8l-71.2-266.2c41.4 0 79.6 27.6 89.8 69l53 196.4c2.4 8.6-4 16.6-13 16.6zM793.6 532.6v-0.2h-96.6l-52.4-196c-2.4-8.8 4.4-16.6 12.8-16.6h37.8c9.6 0 18.4 6 20.8 15.6l34.4 128h39.6c25 0 42.8-23.6 36.2-46.8l-21.2-80c-2.4-8.6 3.8-16.6 12.8-16.6h38.2c9.2 0 18.2 5.8 20.6 15.6l17.6 66.2c18 66.2-31.8 130.8-100.6 130.8zM990.2 383.4c-7.2 0-12 6.8-10.2 13.4l16 60c1.8 7.8 7.4 12 15.6 12h65.8c5.2 0 9.2-4.8 7.8-10.2l-1.4-5.2c-1.2-4-3.8-6-7.8-6h-43.2c-14 0-25.2-9.2-28.4-21.6l-7-26h106.8c21 0 40.6 13.2 46.4 35.2l6.4 24c9.8 38.2-18.6 73.6-56.6 73.6h-94.6c-35.8 0-67.6-24-77.2-59.2l-21.6-80c-10-35.4 16.6-73.4 56.6-73.4h133.4c13.6 0 24.6 9 28.4 21.4l11.4 42z" />
<glyph unicode="&#xe94c;" glyph-name="creative-commons" horiz-adv-x="992" d="M491.66 530.26l-66.44-34.56c-18.86 39.16-50.48 39.86-54.92 39.86-44.26 0-66.44-29.22-66.44-87.68 0-47.14 18.42-87.68 66.44-87.68 28.94 0 49.3 14.18 61.14 42.52l61.1-31c-12.34-23.020-51.38-77.96-130.2-77.96-45.2 0-147.92 20.64-147.92 154.1 0 117.38 86 154.12 145.26 154.12 61.44 0.020 105.4-23.9 131.98-71.72zM777.76 530.26l-65.56-34.56c-19 39.54-51.44 39.86-55.8 39.86-44.28 0-66.44-29.22-66.44-87.68 0-47.1 18.46-87.68 66.44-87.68 28.9 0 49.3 14.18 61.080 42.52l62-31c-4.2-7.5-42.78-77.96-130.18-77.96-45.38 0-147.92 19.74-147.92 154.1 0 117.34 85.94 154.12 145.26 154.12 61.42 0.020 105.16-23.9 131.12-71.72zM495.12 943.9c-285.64 0-495.12-230.12-495.12-496 0-276.98 227.2-496 495.12-496 259.86 0 496.88 201.74 496.88 496 0 275.74-213.24 496-496.88 496zM496.86 42.28c-225.080 0-407.4 186.080-407.4 405.62 0 210.84 170.86 406.54 407.44 406.54 225.060 0 405.64-178.92 405.64-406.52-0.020-243.38-199.36-405.64-405.68-405.64z" />
<glyph unicode="&#xe94d;" glyph-name="creative-commons-by" horiz-adv-x="992" d="M629.8 571.2v-202.8h-56.6v-241h-154.2v240.8h-56.6v203c0 8.8 3.2 16.4 9.2 22.6 6.2 6.2 13.8 9.4 22.6 9.4h203.8c8.2 0 15.6-3.2 22.2-9.4 6.2-6.4 9.6-13.8 9.6-22.6zM426.8 698.6c0 46.6 23 70 69 70s69-23.4 69-70c0-46-23-69-69-69s-69 23-69 69zM495.2 944c283.6 0 496.8-220.2 496.8-496 0-294.2-237-496-496.8-496-268 0-495.2 219-495.2 496 0 265.8 209.4 496 495.2 496zM496.8 854.6c-236.4 0-407.4-195.8-407.4-406.6 0-219.6 182.4-405.6 407.4-405.6 206.4 0 405.6 162.2 405.6 405.6 0.2 227.6-180.4 406.6-405.6 406.6z" />
<glyph unicode="&#xe94e;" glyph-name="creative-commons-nc" horiz-adv-x="992" d="M495.2 944c279.6 0 496.8-215.8 496.8-496 0-294.4-237-496-496.8-496-269 0-495.2 221.6-495.2 496 0 265.8 209.4 496 495.2 496zM111.6 581.8c-14.8-40.8-22.2-85.4-22.2-133.8 0-221.8 184.2-404.8 407.4-404.8 244.8 0 354.4 203.6 357 208.2l-186.8 83.2c-15.4-74.2-82.4-106-136.4-110.8v-76.2h-57.6v76.4c-55 0.6-105.2 20.4-150.6 59.4l68.2 69c63.4-58.8 172.8-63.6 172.8 4.4 0 12.4-4.4 22.4-13.2 30.2-28.4 12-3.6 0.2-438.6 194.8zM496.8 855.4c-76.8 0-224.8-17.4-341-186l189.6-85c20 62.6 80.8 85.8 127.6 88.6v76.2h57.6v-76.2c45.4-2.4 86.8-17.8 124-46l-64.6-66.4c-85.4 59.8-167 16-140-22.2 106.8-48.2 87.6-39.6 186-83.2l254.2-113.4c8.2 34.8 12.4 70.2 12.4 106.2 0 114-39.6 210-118.6 287.8-78.6 79.8-174.4 119.6-287.2 119.6z" />
<glyph unicode="&#xe94f;" glyph-name="creative-commons-nc-eu" horiz-adv-x="992" d="M495.4 944c-288.2 0-495.4-233.6-495.4-496 0-272.6 223.4-496 495.4-496 260.4 0 496.6 201.8 496.6 496 0 278-215.2 496-496.6 496zM496.6 42.6c-224 0-407.2 185-407.2 405.4 0 46.4 7.4 90.4 21.8 132l131.4-58.2h-9.4v-59h46.6c0-12.4-0.8-6.4-0.8-39h-45.6v-59h54c22.8-134 134.4-202.6 249.2-202.6 53.2 0 101.2 15.8 129.6 31.6l-20 92.2c-17.4-9.2-56.4-21.6-94.6-21.6-56.4 0-116.2 21.8-134.6 100.4h180.6l256.6-113.6c-3-4.2-112.4-208.6-357.6-208.6zM463.2 423.8l-1 0.8 1.8-0.8h-0.8zM617.6 462.8h7.4v59h-140.6l-57.2 25.2c5 11 10.8 21 17.6 28.6 25.8 31.6 62.2 44.8 102.2 44.8 36.6 0 70.6-10.8 92.2-20l23.2 94.6c-30 13.2-74 24.8-124.6 24.8-78 0-144.4-31.6-191.8-84.6-10.6-12.2-19.6-25.8-27.8-40.2l-163.2 72.2c129.2 193.6 315.4 187.2 341.4 187.2 226 0 406-180.4 406-406.8 0-37.4-4.2-72.6-12.6-105.8l-272.2 121z" />
<glyph unicode="&#xe950;" glyph-name="creative-commons-nc-jp" horiz-adv-x="992" d="M495.4 944c-288.2 0-495.4-233.6-495.4-496 0-272.8 223.6-496 495.4-496 260.4 0 496.6 201.6 496.6 496 0 277.6-215 496-496.6 496zM496.6 42.6c-224 0-407.2 185-407.2 405.4 0 42.2 6 82.4 18 120.6l254-113h-55.8v-77.2h116.2l11.4-23.6v-37.4h-127.6v-77.4h127.6v-112h123.4v112h128.4v71.4l162-72.2c-3-4.4-114.2-196.6-350.4-196.6zM671.8 317.2h-115.2v37.4l5.8 11.2 109.4-48.6zM684.8 420v35.6h-77.2l126 232h-131.6l-86.8-192-46 20.4-79.2 171.4h-131.6l54.6-102-163.8 73c55.6 88.2 165.2 196.2 347.4 196.2 225.6 0 406-180 406-406.8 0-42-5.4-81.2-15.8-118l-202 90.2z" />
<glyph unicode="&#xe951;" glyph-name="creative-commons-nd" horiz-adv-x="992" d="M495.2 944c283.6 0 496.8-220.2 496.8-496 0-294.2-237-496-496.8-496-268 0-495.2 219-495.2 496 0 265.8 209.4 496 495.2 496zM496.8 854.6c-236.4 0-407.4-195.8-407.4-406.6 0-219.6 182.4-405.6 407.4-405.6 206.4 0 405.6 162.2 405.6 405.6 0.2 227.6-180.4 406.6-405.6 406.6zM684.8 566v-85h-360.6v85h360.6zM684.8 406.4v-85h-360.6v85h360.6z" />
<glyph unicode="&#xe952;" glyph-name="creative-commons-pd" horiz-adv-x="992" d="M496 944c-274 0-496-222.2-496-496 0-274 222-496 496-496s496 222 496 496c0 273.8-222 496-496 496zM496 45c-278.4 0-471.6 276-380.4 535.8l157.6-70.2c-4.2-21-6.6-43-6.6-65.8 0-198 147.8-253.8 240.8-253.8 45.8 0 107 13.4 158.8 59l-72.2 87.8c-11-12.6-35.2-33.4-72.6-33.4-75.6 0-107.4 79.8-107.8 143.8 460.8-205.2 433-193 435.8-193.6-68.6-124.8-201.2-209.6-353.4-209.6zM884.4 345l-448 200c37.6 68 109.8 61.4 149.4 22l80.8 83.2c-54.2 46.6-116 55-156.2 55-94.8 0-161.8-41-201.4-103.2l-149.8 66.8c72.2 109.8 196.2 182.4 337 182.4 222.2 0 403-180.8 403-403 0-36-4.8-70.8-13.6-104-0.6 0.2-0.8 0.4-1.2 0.8z" />
<glyph unicode="&#xe953;" glyph-name="creative-commons-pd-alt" horiz-adv-x="992" d="M495.2 944c-285.8 0-495.2-230.2-495.2-496 0-277 227.2-496 495.2-496 259.8 0 496.8 201.8 496.8 496 0 275.8-213.2 496-496.8 496zM496.8 42.4c-225 0-407.4 186-407.4 405.6 0 210.8 171 406.6 407.4 406.6 225.2 0 405.8-179 405.6-406.6 0-243.4-199.2-405.6-405.6-405.6zM633.4 588h-106.4v-274.4h106.4c42.8 0 140 10.2 140 137.2 0 126.8-97.2 137.2-140 137.2zM635 371h-39.8v159.4l38.8 0.2c7.6 0 70 4.2 70-79.8 0-49.2-21-79.8-69-79.8zM407.4 588h-136.4v-274.6h69.2v88.6h54c108.2 0 114.2 75 114.2 93 0 62-33.6 93-101 93zM397.6 453.4h-58.4v83.2h56.6c61.8 0 57.6-83.2 1.8-83.2z" />
<glyph unicode="&#xe954;" glyph-name="creative-commons-remix" horiz-adv-x="992" d="M495.2 944c283.6 0 496.8-220.2 496.8-496 0-294.2-237-496-496.8-496-268 0-495.2 219-495.2 496 0 265.8 209.4 496 495.2 496zM496.8 854.6c-236.4 0-407.4-195.8-407.4-406.6 0-219.6 182.4-405.6 407.4-405.6 206.4 0 405.6 162.2 405.6 405.6 0.2 227.6-180.4 406.6-405.6 406.6zM820.2 439.2l9.8-4.4v-140c-14.4-7.2-126.8-55-134.6-57.6-13 3.6-227.4 93.6-274.6 112.4l-128.4-53.2-126.6 55v127.6l118.6 49.6c-1.4 1.4-0.8-10-0.8 140.8l134.6 59.4 303.8-125.8v-123.2l98.2-40.6zM679.4 276.2v87.6h-0.8v3.6l-227.6 93v-90.4l227.6-93.8v0.8l0.8-0.8zM694.4 391.4l79.8 32.8-73.6 31-78-32.8 71.8-31zM799 315.2v86l-88.6-37.2v-86.8l88.6 38z" />
<glyph unicode="&#xe955;" glyph-name="creative-commons-sa" horiz-adv-x="992" d="M495.2 944c283.6 0 496.8-220.2 496.8-496 0-294.2-237-496-496.8-496-268 0-495.2 219-495.2 496 0 265.8 209.4 496 495.2 496zM496.8 854.6c-236.4 0-407.4-195.8-407.4-406.6 0-219.6 182.4-405.6 407.4-405.6 206.4 0 405.6 162.2 405.6 405.6 0.2 227.6-180.4 406.6-405.6 406.6zM275.4 518c26 167.8 161 191.4 217.8 191.4 199.6 0 255-165 255-268.4 0-127.2-82-265.8-257.8-265.8-77.8 0-198.2 40-218.8 194h125c3-60.2 39.2-90.4 109-90.4 46.6 0 116 36.4 116 165.6 0 165-98.2 161.2-113.4 161.2-66.2 0-103.4-29.2-111.6-87.6h36.4l-98.4-98.4-98 98.4h38.8z" />
<glyph unicode="&#xe956;" glyph-name="creative-commons-sampling" horiz-adv-x="992" d="M495.2 944c283.6 0 496.8-220.2 496.8-496 0-294.2-237-496-496.8-496-268 0-495.2 219-495.2 496 0 265.8 209.4 496 495.2 496zM496.8 854.6c-236.4 0-407.4-195.8-407.4-406.6 0-219.6 182.4-405.6 407.4-405.6 206.4 0 405.6 162.2 405.6 405.6 0.2 227.6-180.4 406.6-405.6 406.6zM504 748.2c5.6 0.6 23-2 23-23l13.2-214.4 9.8 118.6c0 12 9.4 21.2 21.2 21.2s21.2-9.4 21.2-21.2c0-5-1 11.4 11.4-163l11.6 128.4c0.6 5.8 5.8 18.6 20.4 18.6 7.6 0 19.8-4.6 21.2-17.8l23-193 10.6 25.6c3.6 8.8 10.4 13.2 20.4 13.2h116v-42.6h-101.8l-36.4-88.6c-7.8-19.8-39-18.2-41.6 6.2l-8 63.8-15-185.2c-0.6-6-6-18.6-20.4-18.6-6 0-19.6 4.2-21.2 18.6 0 3.8 1.2-11.6-12.4 155.8l-10.6-144.4c-2.2-9.6-9.6-18.6-21.2-18.6-5.8 0-19.6 4-21.2 18.6 0 3.8 1-13.4-11.6 175.4l-11.6-189.6c0-12.6-7.2-24.8-21.2-24.8-10.4 0-21.2 8.2-21.2 24l-11.6 175.4c-11.6-185-10.6-168-10.6-171.8-2.2-9.6-9.6-18.6-21.2-18.6-6 0-19.6 4.2-21.2 18.6 0 1.4-0.8 2.2-0.8 5.2l-12.4 177.2-9.8-113.4c-1.4-13-13.4-18.6-21.2-18.6-11.6 0-19.2 8.2-21.2 17.8l-22.2 152.8c-4-8-7-16.8-22.2-16.8h-102.8v42.6h89.6l27.4 55.8c8.8 19.8 36.4 14.4 39.8-5.4l6.2-40.8 16.8 195.8c0 12 9.6 21.2 21.2 21.2 1 0 21.2 0.4 21.2-24.8l9.8-138.2 13.2 185.2c0 20.2 19 21.2 20.4 21.2 1.2 0 21.2-1.4 21.2-21.2l10.6-161.2 12.4 195.8c0.2 2.2-1.2 20.6 19.8 23z" />
<glyph unicode="&#xe957;" glyph-name="creative-commons-sampling-plus" horiz-adv-x="992" d="M495.2 944c283.6 0 496.8-220.2 496.8-496 0-294.2-237-496-496.8-496-268 0-495.2 219-495.2 496 0 265.8 209.4 496 495.2 496zM496.8 854.6c-236.4 0-407.4-195.8-407.4-406.6 0-219.6 182.4-405.6 407.4-405.6 206.4 0 405.6 162.2 405.6 405.6 0.2 227.6-180.4 406.6-405.6 406.6zM710.8 443.4c-9.4 0-18-5.6-21.4-14.4l-8-19-22 185.6c-3.4 27.8-44 26.8-46.2-0.8l-8.6-102.8-10.4 137.6c-2.2 28.6-44.2 28.4-46.4 0l-7-89.8-11.8 188.6c-1.8 29-44.6 28.8-46.4 0l-10.2-167.4-8.6 132.6c-1.8 28.8-44.4 28.8-46.4 0l-10.6-160.4-8.2 114c-2.2 28.6-44 28.6-46.4 0.4l-15.4-179.6-3.6 24.4c-3.4 22.8-34.2 27.2-44 6.6l-26.4-55.4h-87.8v-46.4h102.6c8.8 0 16.8 5 20.8 12.8l21.4-146.2c4-27 43.8-26 46.2 1.4l7.6 87.2 11.4-156.6c2.2-28.8 44.6-28.4 46.4 0.2l9.2 140.8 9.6-146.6c1.8-28.8 44.6-28.8 46.4 0.2l9.8 161 9-143.6c1.8-28.6 44.2-29 46.4-0.4l9.2 117.2 9.8-128.8c2.2-28.6 44-28.4 46.2-0.2l13.6 166 5.4-44.6c2.8-23.6 35.4-28.2 44.6-6.2l36 86.8h101v46.4l-116.8-0.6zM554.8 433h-43.8v-43.8c0-8.2-6.6-15-15-15-8.2 0-15 6.6-15 15v43.8h-43.8c-8.2 0-15 6.6-15 15 0 8.2 6.8 15 15 15h43.8v43.8c0 8.2 6.8 15 15 15s15-6.6 15-15v-43.8h43.8c8.2 0 15-6.6 15-15 0-8.2-6.8-15-15-15z" />
<glyph unicode="&#xe958;" glyph-name="creative-commons-share" horiz-adv-x="992" d="M495.2 944c283.6 0 496.8-220.2 496.8-496 0-294.2-237-496-496.8-496-268 0-495.2 219-495.2 496 0 265.8 209.4 496 495.2 496zM496.8 854.6c-236.4 0-407.4-195.8-407.4-406.6 0-219.6 182.4-405.6 407.4-405.6 206.4 0 405.6 162.2 405.6 405.6 0.2 227.6-180.4 406.6-405.6 406.6zM698.8 589.8c15.6 0 27.4-12.2 27.4-27.4v-365c0-15.4-12.2-27.4-27.4-27.4h-270.2c-15.4 0-27.4 12-27.4 27.4v108h-108c-15.6 0-27.4 12-27.4 27.4v365c0 16.4 13.2 25.4 24.8 27.4h272.8c15.4 0 27.4-12 27.4-27.4v-108h108zM319.8 359.4h81.4v202.8c0 14.8 11.6 25.2 24 27.4h111.6v80.6h-217v-310.8zM672.2 535.6h-217v-310.8h217v310.8z" />
<glyph unicode="&#xe959;" glyph-name="creative-commons-zero" horiz-adv-x="992" d="M495.2 944c283.6 0 496.8-220.2 496.8-496 0-294.2-237-496-496.8-496-268 0-495.2 219-495.2 496 0 265.8 209.4 496 495.2 496zM496.8 854.6c-236.4 0-407.4-195.8-407.4-406.6 0-219.6 182.4-405.6 407.4-405.6 206.4 0 405.6 162.2 405.6 405.6 0.2 227.6-180.4 406.6-405.6 406.6zM496 733.6c-163.8 0-205-154.6-205-285.6s41.2-285.6 205-285.6 205 154.6 205 285.6c0 131-41.2 285.6-205 285.6zM496 625.8c6.6 0 12.8-1 18.4-2.4 11.8-10.2 17.6-24.2 6.2-43.8l-109-200.4c-3.4 25.4-3.8 50.2-3.8 68.8 0 57.6 4 177.8 88.2 177.8zM577.6 533.4c5.8-30.8 6.6-62.8 6.6-85.4 0-57.8-4-177.8-88.2-177.8-27 0-65.2 15.4-40.2 52.8l121.8 210.4z" />
</font>
</defs>
</svg>
